<?xml version="1.0" standalone="no"?>
<!DOCTYPE svg PUBLIC "-//W3C//DTD SVG 1.1//EN" "http://www.w3.org/Graphics/SVG/1.1/DTD/svg11.dtd" >
<svg xmlns="http://www.w3.org/2000/svg">
<metadata>
This is a custom SVG webfont generated by Font Squirrel.
Copyright   :  Copyright c 1987 1991 1993 Fundicion Tipografica Neufville S A This record material and the data recorded thereon is the property of Fundicion Tipografica Neufville S A and Adobe Systems Incorporated  or its licensors and may not be reproduced used displayed modified disclosed or transferred in any manner without the express written approval of Fundicion Tipografica Neufville S A and Adobe Systems Incorporated 
</metadata>
<defs>
<font id="FuturaBold" horiz-adv-x="1404" >
<font-face units-per-em="2048" ascent="1638" descent="-410" />
<missing-glyph horiz-adv-x="702" />
<glyph unicode=" "  horiz-adv-x="702" />
<glyph unicode="&#x09;" horiz-adv-x="702" />
<glyph unicode="&#xa0;" horiz-adv-x="702" />
<glyph unicode="!" horiz-adv-x="786" d="M154 199q0 100 69.5 169.5t170 69.5t170 -69.5t69.5 -169.5q0 -98 -69.5 -169t-170 -71t-170 71t-69.5 169zM201 524v1020h387v-1020h-387z" />
<glyph unicode="&#x22;" horiz-adv-x="1024" d="M96 1544h348l-55 -678h-237zM580 1544h348l-56 -678h-237z" />
<glyph unicode="#" d="M139 354v232h232l49 254h-197v231h240l80 416h217l-80 -416h207l80 416h215l-80 -416h164v-231h-201l-49 -254h192v-232h-241l-68 -354h-217l68 354h-207l-68 -354h-217l68 354h-187zM588 586h209l53 254h-213z" />
<glyph unicode="$" d="M139 178l168 309q78 -72 178.5 -122t192.5 -50q72 0 132 40t60 110q0 33 -16 57.5t-52 44t-68 31.5t-92 30.5t-93 30.5q-147 55 -234.5 143.5t-87.5 258.5q0 186 118 327.5t300 153.5v248h191v-248q221 -20 372 -119l-151 -297q-125 100 -262 101q-74 0 -124 -29t-50 -86 q0 -33 18 -59.5t57 -47t60.5 -29.5t64.5 -24q106 -35 171 -64.5t135.5 -80.5t104.5 -126t34 -177q0 -393 -430 -500v-256h-191v244q-129 0 -264 51q-164 63 -242 135z" />
<glyph unicode="%" horiz-adv-x="1996" d="M39 1190q0 176 121 275.5t301 99.5t301 -99.5t121 -275.5q0 -180 -119 -280.5t-303.5 -100.5t-303 100.5t-118.5 280.5zM287 1185.5q0 -71.5 51 -121.5t122.5 -50t123 50t51.5 121.5t-51.5 123t-123 51.5t-122.5 -51.5t-51 -123zM449 0l897 1544h200l-897 -1544h-200z M1114 360q0 176 121 275.5t301 99.5t301 -99t121 -276q0 -180 -119 -280t-303 -100t-303 100t-119 280zM1362 356.5q0 -71.5 51 -122t123 -50.5t123 50.5t51 122t-51 122.5t-123 51t-123 -51t-51 -122.5z" />
<glyph unicode="&#x26;" horiz-adv-x="1736" d="M78 401q0 162 85 260.5t247 169.5l36 17l-32 45q-2 2 -15.5 19.5t-15.5 22.5t-14.5 21.5t-15.5 23.5t-12 24.5t-13 27.5t-10.5 27.5t-8.5 32t-4 33t-2 36.5q0 193 142.5 308.5t337 115.5t339 -114.5t144.5 -305.5q0 -133 -75 -217t-212 -153l195 -205q131 117 202 219 l228 -217l-195 -209l-18 -18l346 -365h-502l-133 143q-270 -184 -529 -184q-209 0 -352 118.5t-143 323.5zM494 461q0 -66 53 -104t121 -38q106 0 215 64l-244 262q-145 -90 -145 -184zM684 1186q0 -35 24.5 -79t39.5 -60l57 -66q143 80 143 188q0 59 -38 101.5t-97 42.5 q-55 0 -92 -36t-37 -91z" />
<glyph unicode="'" horiz-adv-x="512" d="M82 1544h348l-55 -678h-238z" />
<glyph unicode="(" horiz-adv-x="720" d="M100 586q0 268 77 550.5t220 481.5l224 -127q-236 -379 -236 -930q0 -240 60.5 -495.5t175.5 -430.5l-224 -127q-150 197 -223.5 493t-73.5 585z" />
<glyph unicode=")" horiz-adv-x="720" d="M100 -365q115 174 175.5 430.5t60.5 495.5q0 551 -236 930l224 127q143 -199 220 -481.5t77 -550.5q0 -289 -74 -585t-223 -493z" />
<glyph unicode="*" horiz-adv-x="989" d="M139 1288l94 156l179 -113l-11 213h185l-11 -219l183 115l92 -156l-195 -102l193 -107l-92 -153l-181 116l9 -207h-185l13 205l-174 -110l-93 155l185 103z" />
<glyph unicode="+" d="M178 373v307h371v371h307v-371h371v-307h-371v-373h-307v373h-371z" />
<glyph unicode="," horiz-adv-x="702" d="M45 -289l266 680h351l-377 -680h-240z" />
<glyph unicode="-" horiz-adv-x="802" d="M109 504v307h585v-307h-585z" />
<glyph unicode="." horiz-adv-x="702" d="M113 199q0 100 69.5 169.5t170 69.5t170 -69.5t69.5 -169.5q0 -98 -69.5 -169t-170 -71t-170 71t-69.5 169z" />
<glyph unicode="/" horiz-adv-x="1185" d="M55 -190l783 1890h292l-782 -1890h-293z" />
<glyph unicode="0" d="M47 772q0 156 39 300.5t116 266t206 194.5t294.5 73t294.5 -73t206 -194.5t116 -266t39 -300.5q0 -123 -23.5 -240.5t-75 -226t-126 -189.5t-186 -129t-245 -48t-245 48t-186 129t-126 189.5t-75 226t-23.5 240.5zM446 774.5q0 -65.5 11.5 -140.5t38 -156t81 -133 t126 -52t126 52t81 133t37.5 156t11 140.5t-11 139t-37.5 153.5t-81 132t-126 52t-126 -52t-81 -132t-38 -153.5t-11.5 -139z" />
<glyph unicode="1" d="M330 1204v340h622v-1544h-401v1204h-221z" />
<glyph unicode="2" d="M68 0l630 686q176 193 176 379q0 78 -50 139.5t-126 61.5q-78 0 -123 -53.5t-45 -135.5q0 -33 7 -65h-443q10 268 171 431t431 163q250 0 423 -151.5t173 -397.5q0 -156 -60.5 -266.5t-189.5 -227.5l-239 -223h506v-340h-1241z" />
<glyph unicode="3" d="M70 502h409q0 -94 60.5 -156.5t154.5 -62.5t154.5 57t60.5 149q0 86 -63.5 146.5t-149.5 60.5q-25 0 -69 -12v268h41q78 0 127 46t49 124q0 70 -45 113t-113 43q-76 0 -121 -50t-43 -128h-372q23 231 180 373q150 133 393 133q215 0 354.5 -119t139.5 -330 q0 -98 -41 -185t-121 -132q117 -31 184.5 -146.5t67.5 -242.5q0 -162 -87 -281t-221.5 -175t-291.5 -56q-289 0 -461 174q-74 76 -126 184.5t-50 204.5z" />
<glyph unicode="4" d="M33 319v256l596 969h526v-917h186v-308h-186v-319h-373v319h-749zM418 627h364v594h-4z" />
<glyph unicode="5" horiz-adv-x="1411" d="M117 78l59 379q199 -178 430 -178q98 0 172 64.5t74 162.5q0 129 -101.5 196.5t-236.5 67.5q-160 0 -295 -63l135 837h803v-340h-534l-27 -176l127 10q233 18 390 -145.5t157 -407.5q0 -254 -199 -417q-162 -129 -450 -129q-287 0 -504 139z" />
<glyph unicode="6" d="M47 496q0 291 248 614l332 434h454l-438 -522l4 -4q106 47 215 47q219 0 357.5 -161t138.5 -382q0 -272 -192.5 -427.5t-471.5 -155.5q-272 0 -440 133q-94 78 -150.5 191.5t-56.5 232.5zM438 510q0 -106 75 -181t179.5 -75t176 74.5t71.5 181.5q0 104 -71.5 178t-176 74 t-179.5 -74t-75 -178z" />
<glyph unicode="7" d="M86 0l705 1204h-646v340h1268l-887 -1544h-440z" />
<glyph unicode="8" d="M113 406q0 147 83 252.5t224 152.5v4q-106 35 -175 132t-69 218q0 209 155.5 325t371 116t371 -116t155.5 -325q0 -121 -68.5 -218t-175.5 -132v-4q141 -47 224 -152.5t83 -252.5q0 -152 -94 -261.5t-224 -157.5t-271.5 -48t-271.5 48t-224 157.5t-94 261.5zM518 457 q0 -78 54.5 -133.5t130 -55.5t130 55.5t54.5 133.5q0 80 -54.5 136t-130 56t-130 -56t-54.5 -136zM532 1153q0 -72 50.5 -123t120 -51t119.5 51t50 123t-50 123t-119.5 51t-120 -51t-50.5 -123z" />
<glyph unicode="9" d="M47 1022q0 272 192.5 428t471.5 156q276 0 440 -133q94 -76 150.5 -191t56.5 -235q0 -287 -248 -615l-330 -432h-456l440 520l-4 4q-106 -47 -217 -47q-219 0 -357.5 161t-138.5 384zM465 1034.5q0 -106.5 71.5 -180.5t176.5 -74q106 0 181 74t75 180.5t-75 180 t-181 73.5q-104 0 -176 -73.5t-72 -180z" />
<glyph unicode=":" horiz-adv-x="702" d="M113 199q0 100 69.5 169.5t170 69.5t170 -69.5t69.5 -169.5q0 -98 -69.5 -169t-170 -71t-170 71t-69.5 169zM113 889q0 100 69.5 169.5t170 69.5t170 -69.5t69.5 -169.5q0 -98 -69.5 -169t-170 -71t-170 71t-69.5 169z" />
<glyph unicode=";" horiz-adv-x="702" d="M16 -289l267 680h350l-377 -680h-240zM207 889q0 100 69.5 169.5t170 69.5t170 -69.5t69.5 -169.5q0 -98 -69.5 -169t-170 -71t-170 71t-69.5 169z" />
<glyph unicode="&#x3c;" d="M203 403v246l1001 373v-307l-561 -187v-4l561 -186v-307z" />
<glyph unicode="=" d="M178 127v307h1049v-307h-1049zM178 618v308h1049v-308h-1049z" />
<glyph unicode="&#x3e;" d="M203 31v307l561 186v4l-561 187v307l1001 -373v-246z" />
<glyph unicode="?" horiz-adv-x="1218" d="M31 1104q2 223 166.5 352t394.5 129q211 0 358 -127q80 -66 128 -161t48 -193q0 -166 -101 -277.5t-269 -164.5v-146h-375v397q47 -10 86 -10q98 0 181 54.5t83 148.5q0 63 -43 108.5t-106 45.5q-68 0 -106 -43t-38 -113h-407zM336 199q0 100 69.5 169.5t170 69.5 t170 -69.5t69.5 -169.5q0 -98 -69.5 -169t-170 -71t-170 71t-69.5 169z" />
<glyph unicode="@" horiz-adv-x="1515" d="M10 772q0 346 226.5 579.5t556.5 233.5q285 0 481 -178q229 -203 229 -479q0 -268 -127 -436q-141 -188 -315 -181q-43 2 -79 36t-48 83q-102 -119 -262 -119q-137 0 -240.5 113t-103.5 268q0 197 116.5 345.5t300.5 148.5q164 0 252 -127l21 108h194l-102 -532 q-20 -104 -6 -125q10 -12 31 -10q59 6 125.5 117.5t74.5 238.5q14 250 -144.5 393.5t-404.5 143.5q-256 0 -419.5 -175.5t-163.5 -445.5q0 -279 175 -449.5t443 -170.5q236 0 367 81l168 -135q-270 -139 -551 -139q-334 0 -564.5 232.5t-230.5 580.5zM573 725q0 -80 42 -134 t114 -54q86 0 134 67.5t59 157.5q10 88 -31 143.5t-117 55.5q-84 0 -142.5 -74t-58.5 -162z" />
<glyph unicode="A" horiz-adv-x="1599" d="M-8 0l594 1544h438l582 -1544h-428l-101 268h-553l-106 -268h-426zM635 575h334l-164 492h-4z" />
<glyph unicode="B" horiz-adv-x="1386" d="M131 0v1544h574q459 0 458 -401q0 -229 -170 -316v-4q315 -41 316 -393q0 -117 -47.5 -203t-128 -134t-176 -70.5t-207.5 -22.5h-619zM532 307h52h66q17 0 66.5 4t73 14.5t55.5 28t45 47t13 70.5q0 31 -6 55.5t-21.5 41t-27.5 29.5t-40 20.5t-42 12.5t-50 7t-47 2h-51 h-45h-41v-332zM532 938h46q98 0 157.5 30.5t59.5 118.5q0 51 -19.5 83t-58.5 45.5t-72 17.5t-84 4h-29v-299z" />
<glyph unicode="C" horiz-adv-x="1351" d="M53 770q0 332 228 565q115 117 270.5 183.5t316.5 66.5q178 0 367 -78v-481q-61 82 -154.5 126t-197.5 44q-182 0 -297 -123t-115 -305q0 -184 115.5 -302t302.5 -118q98 0 190 44t156 120v-481q-233 -72 -354 -72q-330 0 -580 227q-248 224 -248 584z" />
<glyph unicode="D" horiz-adv-x="1540" d="M131 0v1544h569q324 0 554.5 -224t230.5 -547.5t-230.5 -548t-554.5 -224.5h-569zM532 340h91q193 0 318.5 108.5t125.5 323.5q0 203 -121 317.5t-319 114.5h-95v-864z" />
<glyph unicode="E" horiz-adv-x="1126" d="M131 0v1544h879v-340h-478v-258h453v-340h-453v-266h478v-340h-879z" />
<glyph unicode="F" horiz-adv-x="1110" d="M131 0v1544h887v-340h-486v-258h441v-340h-441v-606h-401z" />
<glyph unicode="G" horiz-adv-x="1724" d="M53 764q0 375 231.5 603t606.5 228q242 0 420 -108.5t276 -323.5l-381 -159q-43 115 -129 180t-205 65q-186 0 -293.5 -147.5t-107.5 -340t109.5 -337.5t298.5 -145q135 0 223 69.5t100 198.5h-328v315h797q-4 -201 -33.5 -340t-124.5 -270q-217 -303 -636 -303 q-365 0 -594.5 226.5t-229.5 588.5z" />
<glyph unicode="H" horiz-adv-x="1644" d="M131 0v1544h401v-596h580v596h401v-1544h-401v633h-580v-633h-401z" />
<glyph unicode="I" horiz-adv-x="663" d="M131 0v1544h401v-1544h-401z" />
<glyph unicode="J" horiz-adv-x="1001" d="M-31 186l232 244q96 -131 161 -131q29 0 50.5 9t33 31.5t18.5 39t10 51.5t3 48v48v1018h402v-1042q0 -252 -131.5 -397.5t-381.5 -145.5t-397 227z" />
<glyph unicode="K" horiz-adv-x="1552" d="M131 0v1544h401v-637h5l485 637h498l-615 -731l670 -813h-520l-518 670h-5v-670h-401z" />
<glyph unicode="L" horiz-adv-x="1013" d="M131 0v1544h401v-1204h482v-340h-883z" />
<glyph unicode="M" horiz-adv-x="2013" d="M39 0l262 1544h395l314 -825l331 825h400l233 -1544h-401l-113 889h-4l-371 -889h-159l-355 889h-4l-129 -889h-399z" />
<glyph unicode="N" horiz-adv-x="1804" d="M131 0v1544h401l736 -944h4v944h401v-1544h-401l-735 946h-5v-946h-401z" />
<glyph unicode="O" horiz-adv-x="1816" d="M53 801q0 227 121 411.5t315.5 283.5t417.5 99t418 -99t315.5 -283.5t120.5 -411.5q0 -375 -240.5 -613.5t-613 -238.5t-613.5 238.5t-241 613.5zM471 799q0 -197 127 -329t309.5 -132t309 132t126.5 329q0 162 -129 284.5t-307 122.5t-307 -122.5t-129 -284.5z" />
<glyph unicode="P" horiz-adv-x="1353" d="M131 0v1544h614q260 0 411 -126t151 -382q0 -524 -547 -524h-228v-512h-401zM532 836h68q57 0 87 1t76 11t68.5 28.5t40 55.5t17.5 92q0 57 -16.5 95t-39 58.5t-66.5 30t-76 11.5t-91 2h-68v-385z" />
<glyph unicode="Q" horiz-adv-x="1816" d="M53 801q0 227 121 411.5t315.5 283.5t417.5 99q367 0 610.5 -228t243.5 -599q0 -297 -198 -543l260 -264l-369 -57l-123 145q-166 -100 -424 -100q-373 0 -613.5 238.5t-240.5 613.5zM471 799q0 -197 128 -329t310 -132q63 0 123 20l-248 246l379 47l109 -112 q72 100 71 227q0 176 -128 308t-306 132t-308 -122.5t-130 -284.5z" />
<glyph unicode="R" horiz-adv-x="1392" d="M131 0v1544h600q242 0 389.5 -118.5t147.5 -356.5q0 -166 -89 -286.5t-249 -149.5l485 -633h-500l-378 594h-5v-594h-401zM532 852h39q279 0 279 192.5t-279 192.5h-39v-385z" />
<glyph unicode="S" horiz-adv-x="1261" d="M61 135l172 324q182 -160 357 -160q78 0 136 40t58 116q0 104 -194 161q-6 2 -49 15q-111 31 -174.5 57.5t-127 74.5t-90 121.5t-26.5 182.5q0 233 149.5 375.5t382.5 142.5q117 0 249 -34.5t235 -92.5l-160 -311q-123 102 -266 102q-63 0 -117.5 -34.5t-54.5 -94.5 q0 -41 33.5 -73.5t63.5 -45t81 -28.5l102 -31q180 -53 280.5 -150.5t100.5 -271.5q0 -281 -160 -416q-172 -145 -438 -145q-291 0 -543 176z" />
<glyph unicode="T" horiz-adv-x="1091" d="M12 1204v340h1065v-340h-332v-1204h-401v1204h-332z" />
<glyph unicode="U" horiz-adv-x="1593" d="M123 676v868h401v-813q0 -74 3 -123t18.5 -110.5t43 -98.5t81 -62.5t127 -25.5t127 25.5t81 62.5t43 98.5t18.5 110.5t3 123v813h401v-868q0 -188 -29.5 -316.5t-131.5 -228.5q-174 -172 -512 -172t-512 172q-102 100 -132 228.5t-30 316.5z" />
<glyph unicode="V" horiz-adv-x="1558" d="M-31 1544h437l372 -938l375 938h436l-659 -1544h-312z" />
<glyph unicode="W" horiz-adv-x="2287" d="M-31 1544h418l268 -997h4l324 997h320l303 -997h4l291 997h417l-493 -1544h-410l-270 895h-4l-303 -895h-408z" />
<glyph unicode="X" horiz-adv-x="1615" d="M-16 0l604 825l-494 719h494l235 -399l236 399h493l-493 -719l571 -825h-483l-324 504l-354 -504h-485z" />
<glyph unicode="Y" horiz-adv-x="1462" d="M-39 1544h481l289 -420l289 420h481l-569 -803v-741h-402v741z" />
<glyph unicode="Z" horiz-adv-x="1447" d="M23 0l731 1204h-607v340h1278l-727 -1204h648v-340h-1323z" />
<glyph unicode="[" horiz-adv-x="716" d="M106 -492v2110h504v-217h-219v-1675h219v-218h-504z" />
<glyph unicode="\" horiz-adv-x="1185" d="M55 1700h295l780 -1700h-290z" />
<glyph unicode="]" horiz-adv-x="716" d="M106 -274h220v1675h-220v217h504v-2110h-504v218z" />
<glyph unicode="^" d="M211 834l369 772h245l369 -772l-233 -138l-259 551l-258 -551z" />
<glyph unicode="_" horiz-adv-x="1024" d="M0 -154h1024v-102h-1024v102z" />
<glyph unicode="`" horiz-adv-x="823" d="M154 1516l227 163l289 -352l-166 -121z" />
<glyph unicode="a" horiz-adv-x="1396" d="M47 526.5q0 231.5 148.5 395t377.5 163.5q209 0 326 -137v103h373v-1051h-373v117h-4q-47 -76 -133 -114t-184 -38q-229 0 -380 165t-151 396.5zM432 524q0 -102 64.5 -168.5t175 -66.5t175 66.5t64.5 168.5q0 100 -64.5 169t-175 69t-175 -69t-64.5 -169z" />
<glyph unicode="b" horiz-adv-x="1396" d="M111 0v1700h372v-752q119 137 326 137q229 0 377.5 -163.5t148.5 -395t-149.5 -396.5t-380.5 -165q-98 0 -183 38t-135 114h-4v-117h-372zM471 524q0 -102 64.5 -168.5t175 -66.5t175 66.5t64.5 168.5q0 100 -64.5 169t-175 69t-175 -69t-64.5 -169z" />
<glyph unicode="c" horiz-adv-x="989" d="M47 514q0 250 169 410.5t419 160.5q135 0 246 -61v-315q-100 74 -193 73q-109 0 -182.5 -73.5t-73.5 -182.5q0 -113 74 -185.5t188 -72.5q109 0 187 72v-315q-119 -59 -263 -60q-238 0 -404.5 156.5t-166.5 392.5z" />
<glyph unicode="d" horiz-adv-x="1396" d="M61 526.5q0 231.5 148.5 395t378.5 163.5q209 0 325 -137v752h373v-1700h-373v117h-4q-47 -76 -133 -114t-184 -38q-229 0 -380 165t-151 396.5zM446 524q0 -102 64.5 -168.5t175.5 -66.5t175.5 66.5t64.5 168.5q0 100 -64.5 169t-175.5 69t-175.5 -69t-64.5 -169z" />
<glyph unicode="e" horiz-adv-x="1249" d="M45 524q0 260 161 410.5t421 150.5q272 0 423.5 -156.5t151.5 -426.5v-39h-784q0 -233 233 -234q121 0 178 97h359q-43 -176 -192.5 -268.5t-342.5 -92.5q-270 0 -439 147.5t-169 411.5zM424 678h432q-14 74 -73.5 120t-137.5 46q-84 0 -144.5 -43t-76.5 -123z" />
<glyph unicode="f" horiz-adv-x="794" d="M29 743v308h131v133q0 131 18.5 210t87.5 158q143 168 367 168q88 0 160 -37v-321q-82 35 -131 35q-70 0 -100 -42t-30 -134v-170h261v-308h-261v-743h-372v743h-131z" />
<glyph unicode="g" horiz-adv-x="1386" d="M51 516q0 236 151.5 402.5t387.5 166.5q207 0 309 -145h4v111h373v-949q0 -326 -154.5 -476t-453.5 -150q-129 0 -255 41t-226.5 135t-116.5 225h417q14 -53 70 -80q49 -25 107 -24q139 0 189 77.5t50 223.5v49q-143 -143 -334 -143q-227 0 -372.5 153.5t-145.5 382.5z M436 532q0 -102 64.5 -168.5t175 -66.5t175 66.5t64.5 168.5q0 100 -64.5 169t-175 69t-175 -69t-64.5 -169z" />
<glyph unicode="h" horiz-adv-x="1353" d="M123 0v1700h373v-782h4q127 168 336 167q195 0 295 -118.5t100 -323.5v-643h-373v539q0 115 -33.5 182t-134.5 67q-102 0 -148 -71.5t-46 -177.5v-539h-373z" />
<glyph unicode="i" horiz-adv-x="618" d="M100 1454q0 86 61.5 147.5t147.5 61.5t147.5 -61.5t61.5 -147.5t-61.5 -147.5t-147.5 -61.5t-147.5 61.5t-61.5 147.5zM123 0v1051h373v-1051h-373z" />
<glyph unicode="j" horiz-adv-x="618" d="M100 1454q0 86 61.5 147.5t147.5 61.5t147.5 -61.5t61.5 -147.5t-61.5 -147.5t-147.5 -61.5t-147.5 61.5t-61.5 147.5zM123 -524v1575h373v-1575h-373z" />
<glyph unicode="k" horiz-adv-x="1409" d="M123 0v1700h373v-1028l387 379h510l-527 -486l559 -565h-522l-407 428v-428h-373z" />
<glyph unicode="l" horiz-adv-x="618" d="M123 0v1700h373v-1700h-373z" />
<glyph unicode="m" horiz-adv-x="2025" d="M123 0v1051h373v-131h4q125 166 331 165q250 0 359 -200q53 96 149.5 148t206.5 52q358 0 359 -415v-670h-373v502q0 51 -1 73.5t-8 71.5t-21.5 73.5t-46.5 46t-77 21.5q-49 0 -83.5 -19t-53 -45t-28 -69t-11.5 -74.5t-2 -78.5v-502h-373v502q0 41 -1 63.5t-5 63.5 t-14 65.5t-27.5 51t-48.5 39t-69.5 12.5t-69.5 -12.5t-48.5 -39t-27.5 -51t-14 -65.5t-5 -63.5t-1 -63.5v-502h-373z" />
<glyph unicode="n" horiz-adv-x="1353" d="M123 0v1051h373v-136h4q115 170 336 170q203 0 299 -115.5t96 -320.5v-649h-373v512v32v37q0 9 -1 34.5t-4 38t-9 35t-14.5 32.5t-21.5 25.5t-29.5 22.5t-39 13t-49.5 6q-195 0 -194 -243v-545h-373z" />
<glyph unicode="o" horiz-adv-x="1355" d="M45 524q0 258 183.5 409.5t449.5 151.5t449.5 -151.5t183.5 -409.5t-183.5 -408.5t-449.5 -150.5q-264 0 -448.5 150.5t-184.5 408.5zM438 524q0 -102 64.5 -168.5t175 -66.5t175.5 66.5t65 168.5q0 100 -65 169t-175.5 69t-175 -69t-64.5 -169z" />
<glyph unicode="p" horiz-adv-x="1396" d="M111 -524v1575h372v-119h4q49 76 135.5 114.5t182.5 38.5q229 0 379.5 -165.5t150.5 -397t-148.5 -394.5t-377.5 -163q-209 0 -326 135v-624h-372zM471 524q0 -102 64.5 -168.5t175 -66.5t175 66.5t64.5 168.5q0 100 -64.5 169t-175 69t-175 -69t-64.5 -169z" />
<glyph unicode="q" horiz-adv-x="1396" d="M61 522q0 229 150.5 396t380.5 167q98 0 184 -38.5t133 -114.5h4v119h373v-1575h-373v624q-115 -135 -325 -135q-229 0 -378 163t-149 394zM446 524q0 -102 64.5 -168.5t175.5 -66.5t175.5 66.5t64.5 168.5q0 100 -64.5 169t-175.5 69t-175.5 -69t-64.5 -169z" />
<glyph unicode="r" horiz-adv-x="927" d="M123 0v1051h373v-172h4q104 186 340 186h71v-358q-61 35 -157 34q-145 0 -201.5 -83t-56.5 -234v-424h-373z" />
<glyph unicode="s" horiz-adv-x="1050" d="M53 86l135 260q61 -43 145.5 -74.5t149.5 -31.5q43 0 80 20.5t37 58.5q0 23 -11 40.5t-38 28.5t-50.5 17.5t-66.5 15.5t-67 15q-106 29 -170 89.5t-64 187.5q0 123 69.5 210t171 124.5t222.5 37.5q197 0 346 -67l-125 -238q-96 51 -201 51q-41 0 -78.5 -18t-37.5 -53 q0 -14 6 -26.5t18.5 -22t24.5 -15.5t31.5 -11t31 -7t31 -5t25.5 -5q305 -61 305 -312q0 -193 -146.5 -292t-349.5 -99q-227 0 -424 121z" />
<glyph unicode="t" horiz-adv-x="737" d="M37 743v308h121v315h372v-315h211v-308h-211v-743h-372v743h-121z" />
<glyph unicode="u" horiz-adv-x="1349" d="M117 418v633h372v-562q0 -111 40 -169t146.5 -58t146.5 58.5t40 168.5v562h373v-633q0 -453 -559 -453t-559 453z" />
<glyph unicode="v" horiz-adv-x="1275" d="M-31 1051h418l252 -539l250 539h418l-549 -1051h-238z" />
<glyph unicode="w" horiz-adv-x="2039" d="M-31 1051h414l262 -570l264 570h221l265 -570l264 570h412l-549 -1051h-242l-260 575l-260 -575h-242z" />
<glyph unicode="x" horiz-adv-x="1458" d="M-31 0l525 569l-426 482h473l188 -217l189 217h481l-434 -482l524 -569h-490l-270 311l-270 -311h-490z" />
<glyph unicode="y" horiz-adv-x="1339" d="M-31 1051h430l281 -539l274 539h424l-841 -1575h-418l358 667z" />
<glyph unicode="z" horiz-adv-x="1144" d="M16 0l494 741h-428v310h1048l-491 -742h442v-309h-1065z" />
<glyph unicode="{" horiz-adv-x="720" d="M74 465v213q94 0 123 37q20 25 20 71v519q0 147 80 230t152 83h198v-246h-51q-43 0 -65.5 -20.5t-25.5 -41t-3 -59.5v-460q0 -186 -197 -218v-4q29 -4 46.5 -7t50 -18.5t51 -38t34 -68.5t15.5 -107v-455q0 -31 2 -46t10 -35.5t28.5 -30t53.5 -9.5h51v-246h-198 q-72 0 -152 83t-80 227v518q0 23 -3 42t-10 32.5t-14.5 22.5t-19.5 15.5t-19.5 10.5t-21.5 5t-20 1h-20h-15z" />
<glyph unicode="|" horiz-adv-x="1185" d="M440 -438v2048h308v-2048h-308z" />
<glyph unicode="}" horiz-adv-x="720" d="M74 -246h51q33 0 53.5 9.5t28.5 30t10 35.5t2 46v455q0 61 15.5 107t34 68.5t51 38t50 18.5t46.5 7v4q-197 31 -197 218v460q0 39 -3 59.5t-25.5 41t-65.5 20.5h-51v246h198q72 0 152 -83t80 -230v-519q0 -111 135 -108h8v-213h-15h-20q-6 0 -20 -1t-21.5 -5t-19.5 -10.5 t-19.5 -15.5t-14.5 -22.5t-10 -33t-3 -41.5v-518q0 -143 -80 -226.5t-152 -83.5h-198v246z" />
<glyph unicode="~" d="M100 487q16 20 67.5 92t84.5 112t91 79t118 39q113 0 262 -115q131 -102 221 -102q63 0 127 172l234 -199q-39 -66 -65 -104.5t-75 -97t-104 -88t-115 -29.5q-29 0 -55.5 5t-58 19.5t-45 20.5t-51.5 28.5t-42 24.5q-25 14 -81 51t-87.5 52.5t-60.5 15.5q-57 0 -133 -172z " />
<glyph unicode="&#xa1;" horiz-adv-x="786" d="M154 850q0 100 69.5 170t170 70t170 -70t69.5 -170q0 -98 -69.5 -169t-170 -71t-170 71t-69.5 169zM201 -498v1020h387v-1020h-387z" />
<glyph unicode="&#xa2;" d="M289 772q0 229 144.5 383t373.5 176v191h190v-203l119 -35v-334q-82 78 -180 78q-111 0 -184.5 -70.5t-73.5 -179.5q0 -104 70.5 -178t175.5 -74q127 0 192 78v-334q-78 -29 -119 -32v-218h-190v203q-215 8 -366.5 171t-151.5 378z" />
<glyph unicode="&#xa3;" d="M39 614v156h221q-74 119 -74 262q0 231 166 391q156 150 432 150q301 0 433.5 -138.5t136.5 -443.5h-398v72q0 78 -54 136t-132 58q-90 0 -142.5 -62t-52.5 -155q0 -147 84 -270h320v-156h-291q18 -51 19.5 -135t-19.5 -139l23 -8q195 -70 303 -70q47 0 75.5 26.5 t28.5 73.5h250q-12 -178 -107.5 -286.5t-269.5 -108.5q-29 0 -56.5 3t-60 10.5t-52 12.5t-59.5 16t-54 16q-180 51 -260 51q-109 0 -130 -76h-266q27 143 122 251.5t231 110.5q53 113 -37 252h-330z" />
<glyph unicode="&#xa4;" d="M100 311l136 135q-102 135 -103 328q0 213 103 338l-136 137l127 129l138 -137q139 106 344 107q201 0 327 -107l138 137l126 -127l-126 -129q111 -150 110 -344q0 -201 -115 -329l136 -136l-123 -133l-138 135q-131 -111 -335 -110q-211 0 -347 112l-135 -135zM440 768 q0 -115 76 -185.5t192.5 -70.5t192.5 70.5t76 185.5t-77 193.5t-191.5 78.5t-191.5 -78.5t-77 -193.5z" />
<glyph unicode="&#xa5;" d="M-23 1544h455l270 -420l271 420h454l-317 -475h186v-156h-290l-115 -172h405v-155h-405v-586h-377v586h-410v155h408l-117 172h-291v156h189z" />
<glyph unicode="&#xa6;" horiz-adv-x="1185" d="M440 -182v512h308v-512h-308zM440 842v512h308v-512h-308z" />
<glyph unicode="&#xa7;" d="M117 621q0 186 176 333q-43 41 -67.5 108.5t-24.5 131.5q0 184 138 287.5t329 103.5q94 0 177 -21.5t151.5 -65.5t110.5 -118.5t46 -173.5h-322q-12 55 -51 89t-94 34q-47 0 -81 -28.5t-34 -75.5q0 -25 10.5 -47.5t20.5 -36t37 -30.5t38 -24.5t45 -22.5t40 -20l227 -114 q156 -76 228.5 -152t72.5 -221q0 -184 -172 -321q104 -92 105 -267q0 -141 -79 -244.5t-198 -149.5t-258 -46q-150 0 -277.5 50t-211.5 162t-78 265h375q-2 -78 60 -132t140 -54q66 0 111 37t45 100q0 20 -4 37.5t-18.5 33t-21.5 24.5t-30.5 22.5t-30 17.5t-36 18.5 t-31.5 14.5l-324 158q-239 119 -239 338zM430 707q0 -16 5 -30.5t9.5 -25t17.5 -23t19 -18.5t25.5 -17t25 -14.5t28 -14.5t24.5 -11l342 -170q53 43 53 111q0 29 -12.5 53t-40 43.5t-46 30t-51.5 26.5l-335 170q-64 -36 -64 -110z" />
<glyph unicode="&#xa8;" horiz-adv-x="1236" d="M154 1438q0 84 59 142t143 58q82 0 141.5 -59t59.5 -141q0 -84 -58.5 -142.5t-142.5 -58.5t-143 58.5t-59 142.5zM678 1438q0 84 59.5 142t143.5 58q82 0 141 -59t59 -141q0 -84 -58 -142.5t-142 -58.5t-143.5 58.5t-59.5 142.5z" />
<glyph unicode="&#xa9;" horiz-adv-x="1638" d="M8 770q0 340 235.5 577.5t575.5 237.5q338 0 574.5 -237.5t236.5 -577.5q0 -336 -236.5 -573.5t-574.5 -237.5t-574.5 236.5t-236.5 574.5zM201 770q0 -268 176 -443t442 -175q264 0 441.5 175t177.5 443q0 270 -177.5 446.5t-441.5 176.5q-266 0 -442 -175.5 t-176 -447.5zM403 778q0 207 121 338t326 131q147 0 252.5 -83t130.5 -224h-184q-12 72 -67.5 111t-133.5 39q-117 0 -184.5 -90.5t-67.5 -217.5q0 -123 72.5 -218t185.5 -95q76 0 133 43t62 115h184q-16 -143 -125 -229.5t-254 -86.5q-201 0 -326 134t-125 333z" />
<glyph unicode="&#xaa;" horiz-adv-x="837" d="M23 1249.5q0 139.5 96 237.5t246 98q135 0 210 -82v62h242v-631h-242v70h-4q-59 -90 -204 -91q-150 0 -247 98.5t-97 238zM272 1249.5q0 -59.5 45 -101.5t111 -42t111 42t45 101.5t-45 101.5t-111 42t-111 -42t-45 -101.5z" />
<glyph unicode="&#xab;" horiz-adv-x="1234" d="M53 655l353 504l204 -141l-258 -363l264 -356l-210 -147zM563 655l352 504l205 -141l-258 -363l264 -356l-211 -147z" />
<glyph unicode="&#xac;" d="M178 618v308h1049v-637h-307v329h-742z" />
<glyph unicode="&#xad;" horiz-adv-x="802" d="M109 504v307h585v-307h-585z" />
<glyph unicode="&#xae;" horiz-adv-x="1638" d="M8 770q0 340 235.5 577.5t575.5 237.5q338 0 574.5 -237.5t236.5 -577.5q0 -336 -236.5 -573.5t-574.5 -237.5t-574.5 236.5t-236.5 574.5zM201 770q0 -268 176 -443t442 -175q264 0 441.5 175t177.5 443q0 270 -177.5 446.5t-441.5 176.5q-266 0 -442 -175.5 t-176 -447.5zM496 358v844h409q166 0 247 -51t81 -207q0 -115 -57.5 -168t-171.5 -61l204 -357h-204l-189 357h-131v-357h-188zM684 842h225q78 0 113 25.5t35 101.5q0 31 -16.5 49t-50.5 25.5t-57.5 9.5t-66.5 2h-182v-213z" />
<glyph unicode="&#xaf;" horiz-adv-x="1234" d="M154 1321v219h925v-219h-925z" />
<glyph unicode="&#xb0;" horiz-adv-x="819" d="M102 1276q-4 127 86.5 218t219.5 91q127 0 218 -91t91 -218q0 -125 -91 -215t-218 -90q-129 0 -217.5 89t-88.5 216zM276 1278q0 -55 39 -94t94.5 -39t94.5 39t39 94q0 53 -40 93t-95 40q-53 0 -93.5 -40t-38.5 -93z" />
<glyph unicode="&#xb1;" d="M178 0v307h1049v-307h-1049zM178 741v308h371v290h307v-290h371v-308h-371v-290h-307v290h-371z" />
<glyph unicode="&#xb2;" horiz-adv-x="843" d="M6 643l412 412q115 115 114 227q0 45 -32.5 82t-81.5 37q-51 0 -81 -32t-30 -81q0 -10 4 -39h-286q6 162 110.5 259.5t280.5 97.5q164 0 275.5 -91.5t111.5 -238.5q0 -94 -39 -159.5t-123 -135.5l-156 -135h328v-203h-807z" />
<glyph unicode="&#xb3;" horiz-adv-x="843" d="M8 944h266q0 -55 39 -92t100.5 -37t100.5 34t39 89q0 51 -41 87t-96 36q-8 0 -15.5 -1t-16.5 -3t-15 -2v159h26q51 0 83 28t32 75q0 41 -28.5 66.5t-73.5 25.5q-47 0 -77 -30.5t-30 -75.5h-242q14 143 114.5 223t258.5 80q139 0 230.5 -72t91.5 -197q0 -135 -107 -190 q76 -16 120 -87t44 -147q0 -143 -114.5 -224t-274.5 -81q-188 0 -299 105q-49 45 -83 109.5t-32 121.5z" />
<glyph unicode="&#xb4;" horiz-adv-x="823" d="M154 1327l288 352l228 -163l-351 -310z" />
<glyph unicode="&#xb5;" horiz-adv-x="1349" d="M117 -524v1575h372v-562q0 -111 40 -169t146.5 -58t146.5 58.5t40 168.5v562h373v-633q0 -127 -46 -220.5t-122 -141.5t-152.5 -69.5t-156.5 -21.5q-164 0 -269 101v-590h-372z" />
<glyph unicode="&#xb6;" d="M98 1034q-20 186 120 348t321 162h772v-186h-135v-1706h-207v1704h-191v-1704h-207v942q-199 18 -323.5 118.5t-149.5 321.5z" />
<glyph unicode="&#xb7;" horiz-adv-x="702" d="M113 524q0 100 69.5 170t170 70t170 -69.5t69.5 -170.5q0 -98 -69.5 -168.5t-170 -70.5t-170 70.5t-69.5 168.5z" />
<glyph unicode="&#xb8;" horiz-adv-x="778" d="M154 -385l266 324l203 -132l-310 -292z" />
<glyph unicode="&#xb9;" horiz-adv-x="843" d="M190 1366v203h404v-926h-260v723h-144z" />
<glyph unicode="&#xba;" horiz-adv-x="839" d="M10 1249.5q0 155.5 119 245.5t291 90t291.5 -90t119.5 -245.5t-119.5 -246t-291.5 -90.5t-291 90.5t-119 246zM266 1249.5q0 -59.5 44 -100.5t109.5 -41t110.5 41t45 100.5t-46 100.5t-109.5 41t-108.5 -41t-45 -100.5z" />
<glyph unicode="&#xbb;" horiz-adv-x="1234" d="M109 299l264 356l-258 363l204 141l353 -504l-353 -503zM618 299l265 356l-258 363l204 141l353 -504l-353 -503z" />
<glyph unicode="&#xbc;" horiz-adv-x="2107" d="M205 1341v203h403v-926h-260v723h-143zM424 0l897 1544h201l-897 -1544h-201zM1053 193v153l387 580h342v-549h121v-184h-121v-193h-242v193h-487zM1303 375h237v356h-4z" />
<glyph unicode="&#xbd;" horiz-adv-x="2107" d="M205 1341v203h403v-926h-260v723h-143zM367 0l897 1544h200l-897 -1544h-200zM1096 0l411 412q115 115 115 227q0 45 -33 82t-82 37q-51 0 -80.5 -32t-29.5 -81q0 -10 4 -39h-287q6 162 110.5 259.5t280.5 97.5q164 0 275.5 -91.5t111.5 -238.5q0 -94 -38.5 -159.5 t-122.5 -135.5l-156 -135h328v-203h-807z" />
<glyph unicode="&#xbe;" horiz-adv-x="2107" d="M102 883h267q0 -57 39 -92q41 -37 100 -37q61 0 100 33.5t39 89.5q0 51 -41 86.5t-96 35.5q-8 0 -15.5 -1t-16.5 -3t-15 -2v160h26q51 0 83 27.5t32 74.5q0 41 -28.5 67t-73.5 26q-47 0 -77 -31t-30 -76h-241q14 143 114.5 223t257.5 80q139 0 230.5 -71.5t91.5 -196.5 q0 -135 -107 -191q76 -16 120 -86.5t44 -146.5q0 -143 -114.5 -224t-274.5 -81q-188 0 -299 104q-49 45 -83 110t-32 122zM600 0l897 1544h201l-897 -1544h-201zM1155 193v153l387 580h342v-549h121v-184h-121v-193h-242v193h-487zM1405 375h237v356h-4z" />
<glyph unicode="&#xbf;" horiz-adv-x="1218" d="M92 -59q0 166 101.5 277.5t269.5 164.5v145h375v-397q-47 10 -86 10q-98 0 -181.5 -54t-83.5 -148q0 -63 43 -108.5t107 -45.5q68 0 105.5 43t37.5 113h408q-2 -223 -167 -352.5t-394 -129.5q-211 0 -359 127q-80 66 -128 161.5t-48 193.5zM403 850q0 100 70 170t170 70 t170 -70t70 -170q0 -98 -70 -169t-170 -71t-170 71t-70 169z" />
<glyph unicode="&#xc0;" horiz-adv-x="1599" d="M-8 0l594 1544h438l582 -1544h-428l-101 268h-553l-106 -268h-426zM635 575h334l-164 492h-4zM502 1948l227 163l289 -352l-166 -121z" />
<glyph unicode="&#xc1;" horiz-adv-x="1599" d="M-8 0l594 1544h438l582 -1544h-428l-101 268h-553l-106 -268h-426zM635 575h334l-164 492h-4zM584 1759l288 352l228 -163l-351 -310z" />
<glyph unicode="&#xc2;" horiz-adv-x="1599" d="M-8 0l594 1544h438l582 -1544h-428l-101 268h-553l-106 -268h-426zM635 575h334l-164 492h-4zM351 1794l446 336l453 -336l-158 -172l-295 227l-295 -227z" />
<glyph unicode="&#xc3;" horiz-adv-x="1599" d="M-8 0l594 1544h438l582 -1544h-428l-101 268h-553l-106 -268h-426zM635 575h334l-164 492h-4zM392 1716q0 106 45 182q68 115 182 115q55 0 175 -35t159 -35q35 0 51 17.5t31 56.5h174q-10 -127 -78 -225t-188 -98q-53 0 -159 37.5t-153 37.5q-23 0 -38 -13t-19 -23.5 t-12 -38.5h-168z" />
<glyph unicode="&#xc4;" horiz-adv-x="1599" d="M-8 0l594 1544h438l582 -1544h-428l-101 268h-553l-106 -268h-426zM635 575h334l-164 492h-4zM336 1870q0 84 59 142t143 58q82 0 141.5 -59t59.5 -141q0 -84 -58.5 -142.5t-142.5 -58.5t-143 58.5t-59 142.5zM860 1870q0 84 59.5 142t143.5 58q82 0 141 -59t59 -141 q0 -84 -58 -142.5t-142 -58.5t-143.5 58.5t-59.5 142.5z" />
<glyph unicode="&#xc5;" horiz-adv-x="1599" d="M-8 0l594 1544h438l582 -1544h-428l-101 268h-553l-106 -268h-426zM635 575h334l-164 492h-4zM486 1832.5q0 122.5 90 180t221 57.5q133 0 225 -56.5t92 -178.5q0 -121 -91 -178.5t-220 -57.5q-131 0 -224 55.5t-93 178zM680 1835q0 -45 36 -66.5t85 -21.5q47 0 83 21.5 t36 66.5t-36 66.5t-83 21.5q-49 0 -85 -21.5t-36 -66.5z" />
<glyph unicode="&#xc6;" horiz-adv-x="2101" d="M-8 0l596 1544h946l125 -340h-508l94 -258h506l129 -340h-510l100 -266h508l123 -340h-930l-100 268h-559l-96 -268h-424zM623 575h340l-166 459z" />
<glyph unicode="&#xc7;" horiz-adv-x="1351" d="M53 770q0 332 228 565q115 117 270.5 183.5t316.5 66.5q178 0 367 -78v-481q-61 82 -154.5 126t-197.5 44q-182 0 -297 -123t-115 -305q0 -184 115.5 -302t302.5 -118q98 0 190 44t156 120v-481q-233 -72 -354 -72q-330 0 -580 227q-248 224 -248 584zM492 -385l266 324 l203 -132l-310 -292z" />
<glyph unicode="&#xc8;" horiz-adv-x="1126" d="M131 0v1544h879v-340h-478v-258h453v-340h-453v-266h478v-340h-879zM306 1948l227 163l289 -352l-166 -121z" />
<glyph unicode="&#xc9;" horiz-adv-x="1126" d="M131 0v1544h879v-340h-478v-258h453v-340h-453v-266h478v-340h-879zM306 1759l288 352l228 -163l-351 -310z" />
<glyph unicode="&#xca;" horiz-adv-x="1126" d="M131 0v1544h879v-340h-478v-258h453v-340h-453v-266h478v-340h-879zM113 1794l446 336l453 -336l-158 -172l-295 227l-295 -227z" />
<glyph unicode="&#xcb;" horiz-adv-x="1126" d="M131 0v1544h879v-340h-478v-258h453v-340h-453v-266h478v-340h-879zM99 1870q0 84 59 142t143 58q82 0 141.5 -59t59.5 -141q0 -84 -58.5 -142.5t-142.5 -58.5t-143 58.5t-59 142.5zM623 1870q0 84 59.5 142t143.5 58q82 0 141 -59t59 -141q0 -84 -58 -142.5t-142 -58.5 t-143.5 58.5t-59.5 142.5z" />
<glyph unicode="&#xcc;" horiz-adv-x="663" d="M131 0v1544h401v-1544h-401zM43 1948l227 163l289 -352l-166 -121z" />
<glyph unicode="&#xcd;" horiz-adv-x="663" d="M131 0v1544h401v-1544h-401zM105 1759l288 352l228 -163l-351 -310z" />
<glyph unicode="&#xce;" horiz-adv-x="663" d="M131 0v1544h401v-1544h-401zM-88 1794l446 336l453 -336l-158 -172l-295 227l-295 -227z" />
<glyph unicode="&#xcf;" horiz-adv-x="663" d="M131 0v1544h401v-1544h-401zM-133 1870q0 84 59 142t143 58q82 0 141.5 -59t59.5 -141q0 -84 -58.5 -142.5t-142.5 -58.5t-143 58.5t-59 142.5zM391 1870q0 84 59.5 142t143.5 58q82 0 141 -59t59 -141q0 -84 -58 -142.5t-142 -58.5t-143.5 58.5t-59.5 142.5z" />
<glyph unicode="&#xd0;" horiz-adv-x="1540" d="M-41 633v315h172v596h520q365 0 599.5 -217t234.5 -555q0 -336 -237.5 -554t-592.5 -218h-524v633h-172zM532 340h91q193 0 318.5 108.5t125.5 323.5q0 203 -121 317.5t-319 114.5h-95v-256h226v-315h-226v-293z" />
<glyph unicode="&#xd1;" horiz-adv-x="1804" d="M131 0v1544h401l736 -944h4v944h401v-1544h-401l-735 946h-5v-946h-401zM494 1716q0 106 45 182q68 115 182 115q55 0 175 -35t159 -35q35 0 51 17.5t31 56.5h174q-10 -127 -78 -225t-188 -98q-53 0 -159 37.5t-153 37.5q-23 0 -38 -13t-19 -23.5t-12 -38.5h-168z" />
<glyph unicode="&#xd2;" horiz-adv-x="1816" d="M53 801q0 227 121 411.5t315.5 283.5t417.5 99t418 -99t315.5 -283.5t120.5 -411.5q0 -375 -240.5 -613.5t-613 -238.5t-613.5 238.5t-241 613.5zM471 799q0 -197 127 -329t309.5 -132t309 132t126.5 329q0 162 -129 284.5t-307 122.5t-307 -122.5t-129 -284.5zM611 1948 l227 163l289 -352l-166 -121z" />
<glyph unicode="&#xd3;" horiz-adv-x="1816" d="M53 801q0 227 121 411.5t315.5 283.5t417.5 99t418 -99t315.5 -283.5t120.5 -411.5q0 -375 -240.5 -613.5t-613 -238.5t-613.5 238.5t-241 613.5zM471 799q0 -197 127 -329t309.5 -132t309 132t126.5 329q0 162 -129 284.5t-307 122.5t-307 -122.5t-129 -284.5zM693 1759 l288 352l228 -163l-351 -310z" />
<glyph unicode="&#xd4;" horiz-adv-x="1816" d="M53 801q0 227 121 411.5t315.5 283.5t417.5 99t418 -99t315.5 -283.5t120.5 -411.5q0 -375 -240.5 -613.5t-613 -238.5t-613.5 238.5t-241 613.5zM471 799q0 -197 127 -329t309.5 -132t309 132t126.5 329q0 162 -129 284.5t-307 122.5t-307 -122.5t-129 -284.5zM459 1794 l446 336l453 -336l-158 -172l-295 227l-295 -227z" />
<glyph unicode="&#xd5;" horiz-adv-x="1816" d="M53 801q0 227 121 411.5t315.5 283.5t417.5 99t418 -99t315.5 -283.5t120.5 -411.5q0 -375 -240.5 -613.5t-613 -238.5t-613.5 238.5t-241 613.5zM471 799q0 -197 127 -329t309.5 -132t309 132t126.5 329q0 162 -129 284.5t-307 122.5t-307 -122.5t-129 -284.5zM500 1716 q0 106 45 182q68 115 182 115q55 0 175 -35t159 -35q35 0 51 17.5t31 56.5h174q-10 -127 -78 -225t-188 -98q-53 0 -159 37.5t-153 37.5q-23 0 -38 -13t-19 -23.5t-12 -38.5h-168z" />
<glyph unicode="&#xd6;" horiz-adv-x="1816" d="M53 801q0 227 121 411.5t315.5 283.5t417.5 99t418 -99t315.5 -283.5t120.5 -411.5q0 -375 -240.5 -613.5t-613 -238.5t-613.5 238.5t-241 613.5zM471 799q0 -197 127 -329t309.5 -132t309 132t126.5 329q0 162 -129 284.5t-307 122.5t-307 -122.5t-129 -284.5zM445 1870 q0 84 59 142t143 58q82 0 141.5 -59t59.5 -141q0 -84 -58.5 -142.5t-142.5 -58.5t-143 58.5t-59 142.5zM969 1870q0 84 59.5 142t143.5 58q82 0 141 -59t59 -141q0 -84 -58 -142.5t-142 -58.5t-143.5 58.5t-59.5 142.5z" />
<glyph unicode="&#xd7;" d="M178 217l309 307l-309 310l217 217l307 -312l306 312l217 -217l-305 -310l307 -307l-217 -217l-308 307l-307 -307z" />
<glyph unicode="&#xd8;" horiz-adv-x="1816" d="M43 82l184 182q-174 225 -174 537q0 227 121 411.5t315.5 283.5t417.5 99q283 0 512 -159l195 190l160 -164l-185 -182q172 -205 172 -479q0 -375 -240.5 -613.5t-613.5 -238.5q-297 0 -514 157l-190 -188zM471 799q0 -135 61 -236l594 584q-102 59 -219 59 q-178 0 -307 -122.5t-129 -284.5zM690 397q96 -59 217 -59q182 0 309 132t127 329q0 102 -53 186z" />
<glyph unicode="&#xd9;" horiz-adv-x="1593" d="M123 676v868h401v-813q0 -74 3 -123t18.5 -110.5t43 -98.5t81 -62.5t127 -25.5t127 25.5t81 62.5t43 98.5t18.5 110.5t3 123v813h401v-868q0 -188 -29.5 -316.5t-131.5 -228.5q-174 -172 -512 -172t-512 172q-102 100 -132 228.5t-30 316.5zM498 1948l227 163l289 -352 l-166 -121z" />
<glyph unicode="&#xda;" horiz-adv-x="1593" d="M123 676v868h401v-813q0 -74 3 -123t18.5 -110.5t43 -98.5t81 -62.5t127 -25.5t127 25.5t81 62.5t43 98.5t18.5 110.5t3 123v813h401v-868q0 -188 -29.5 -316.5t-131.5 -228.5q-174 -172 -512 -172t-512 172q-102 100 -132 228.5t-30 316.5zM580 1759l288 352l228 -163 l-351 -310z" />
<glyph unicode="&#xdb;" horiz-adv-x="1593" d="M123 676v868h401v-813q0 -74 3 -123t18.5 -110.5t43 -98.5t81 -62.5t127 -25.5t127 25.5t81 62.5t43 98.5t18.5 110.5t3 123v813h401v-868q0 -188 -29.5 -316.5t-131.5 -228.5q-174 -172 -512 -172t-512 172q-102 100 -132 228.5t-30 316.5zM347 1794l446 336l453 -336 l-158 -172l-295 227l-295 -227z" />
<glyph unicode="&#xdc;" horiz-adv-x="1593" d="M123 676v868h401v-813q0 -74 3 -123t18.5 -110.5t43 -98.5t81 -62.5t127 -25.5t127 25.5t81 62.5t43 98.5t18.5 110.5t3 123v813h401v-868q0 -188 -29.5 -316.5t-131.5 -228.5q-174 -172 -512 -172t-512 172q-102 100 -132 228.5t-30 316.5zM332 1870q0 84 59 142t143 58 q82 0 141.5 -59t59.5 -141q0 -84 -58.5 -142.5t-142.5 -58.5t-143 58.5t-59 142.5zM856 1870q0 84 59.5 142t143.5 58q82 0 141 -59t59 -141q0 -84 -58 -142.5t-142 -58.5t-143.5 58.5t-59.5 142.5z" />
<glyph unicode="&#xdd;" horiz-adv-x="1462" d="M-39 1544h481l289 -420l289 420h481l-569 -803v-741h-402v741zM555 1759l288 352l228 -163l-351 -310z" />
<glyph unicode="&#xde;" horiz-adv-x="1353" d="M131 0v1544h401v-246h213q260 0 411 -125.5t151 -381.5q0 -524 -547 -525h-228v-266h-401zM532 590h68q57 0 87 1t76 11t68.5 28.5t40 55.5t17.5 92q0 57 -16.5 95t-39 58.5t-66.5 30t-76 11.5t-91 2h-68v-385z" />
<glyph unicode="&#xdf;" horiz-adv-x="1333" d="M16 608v297h107v301q0 266 127 379q145 135 405 135q219 0 364.5 -118.5t145.5 -333.5q0 -104 -45 -178t-137 -144q158 -63 231.5 -161.5t73.5 -274.5q0 -115 -42 -228.5t-122 -181.5q-154 -135 -440 -135h-80v318q119 -4 198 63.5t79 183.5q0 115 -81 186.5t-196 63.5 v297q92 -4 147.5 37t55.5 129q0 72 -42 114t-114 42q-53 0 -87 -18.5t-47 -57.5t-17 -71.5t-4 -86.5v-1165h-373v608h-107z" />
<glyph unicode="&#xe0;" horiz-adv-x="1396" d="M47 526.5q0 231.5 148.5 395t377.5 163.5q209 0 326 -137v103h373v-1051h-373v117h-4q-47 -76 -133 -114t-184 -38q-229 0 -380 165t-151 396.5zM432 524q0 -102 64.5 -168.5t175 -66.5t175 66.5t64.5 168.5q0 100 -64.5 169t-175 69t-175 -69t-64.5 -169zM441 1516 l227 163l289 -352l-166 -121z" />
<glyph unicode="&#xe1;" horiz-adv-x="1396" d="M47 526.5q0 231.5 148.5 395t377.5 163.5q209 0 326 -137v103h373v-1051h-373v117h-4q-47 -76 -133 -114t-184 -38q-229 0 -380 165t-151 396.5zM432 524q0 -102 64.5 -168.5t175 -66.5t175 66.5t64.5 168.5q0 100 -64.5 169t-175 69t-175 -69t-64.5 -169zM482 1327 l288 352l228 -163l-351 -310z" />
<glyph unicode="&#xe2;" horiz-adv-x="1396" d="M47 526.5q0 231.5 148.5 395t377.5 163.5q209 0 326 -137v103h373v-1051h-373v117h-4q-47 -76 -133 -114t-184 -38q-229 0 -380 165t-151 396.5zM432 524q0 -102 64.5 -168.5t175 -66.5t175 66.5t64.5 168.5q0 100 -64.5 169t-175 69t-175 -69t-64.5 -169zM248 1362 l446 336l453 -336l-158 -172l-295 227l-295 -227z" />
<glyph unicode="&#xe3;" horiz-adv-x="1396" d="M47 526.5q0 231.5 148.5 395t377.5 163.5q209 0 326 -137v103h373v-1051h-373v117h-4q-47 -76 -133 -114t-184 -38q-229 0 -380 165t-151 396.5zM432 524q0 -102 64.5 -168.5t175 -66.5t175 66.5t64.5 168.5q0 100 -64.5 169t-175 69t-175 -69t-64.5 -169zM291 1284 q0 106 45 182q68 115 182 115q55 0 175 -35t159 -35q35 0 51 17.5t31 56.5h174q-10 -127 -78 -225t-188 -98q-53 0 -159 37.5t-153 37.5q-23 0 -38 -13t-19 -23.5t-12 -38.5h-168z" />
<glyph unicode="&#xe4;" horiz-adv-x="1396" d="M47 526.5q0 231.5 148.5 395t377.5 163.5q209 0 326 -137v103h373v-1051h-373v117h-4q-47 -76 -133 -114t-184 -38q-229 0 -380 165t-151 396.5zM432 524q0 -102 64.5 -168.5t175 -66.5t175 66.5t64.5 168.5q0 100 -64.5 169t-175 69t-175 -69t-64.5 -169zM234 1438 q0 84 59 142t143 58q82 0 141.5 -59t59.5 -141q0 -84 -58.5 -142.5t-142.5 -58.5t-143 58.5t-59 142.5zM758 1438q0 84 59.5 142t143.5 58q82 0 141 -59t59 -141q0 -84 -58 -142.5t-142 -58.5t-143.5 58.5t-59.5 142.5z" />
<glyph unicode="&#xe5;" horiz-adv-x="1396" d="M47 526.5q0 231.5 148.5 395t377.5 163.5q209 0 326 -137v103h373v-1051h-373v117h-4q-47 -76 -133 -114t-184 -38q-229 0 -380 165t-151 396.5zM432 524q0 -102 64.5 -168.5t175 -66.5t175 66.5t64.5 168.5q0 100 -64.5 169t-175 69t-175 -69t-64.5 -169zM385 1431.5 q0 122.5 90 180t221 57.5q133 0 225 -56.5t92 -178.5q0 -121 -91 -178.5t-220 -57.5q-131 0 -224 55.5t-93 178zM579 1434q0 -45 36 -66.5t85 -21.5q47 0 83 21.5t36 66.5t-36 66.5t-83 21.5q-49 0 -85 -21.5t-36 -66.5z" />
<glyph unicode="&#xe6;" horiz-adv-x="1925" d="M43 303q0 176 125 263t307 87q147 0 277 -53v31q0 184 -250 184q-113 0 -293 -57v278q182 49 305 49q299 0 395 -186q59 90 168 138t228 48q272 0 423.5 -156.5t151.5 -426.5v-39h-784q0 -233 233 -234q121 0 178 97h359q-43 -176 -192.5 -268.5t-342.5 -92.5 q-139 0 -257 49t-165 158q-76 -96 -189.5 -151.5t-236.5 -55.5q-106 0 -203.5 35t-167 114.5t-69.5 188.5zM406 334q0 -57 52 -85t115 -28q61 0 124 27.5t63 83.5q0 61 -63.5 87.5t-135.5 26.5q-59 0 -107 -28.5t-48 -83.5zM1108 678h432q-14 74 -73.5 120t-137.5 46 q-84 0 -144.5 -43t-76.5 -123z" />
<glyph unicode="&#xe7;" horiz-adv-x="989" d="M47 514q0 250 169 410.5t419 160.5q135 0 246 -61v-315q-100 74 -193 73q-109 0 -182.5 -73.5t-73.5 -182.5q0 -113 74 -185.5t188 -72.5q109 0 187 72v-315q-119 -59 -263 -60q-238 0 -404.5 156.5t-166.5 392.5zM260 -385l266 324l203 -132l-309 -292z" />
<glyph unicode="&#xe8;" horiz-adv-x="1249" d="M45 524q0 260 161 410.5t421 150.5q272 0 423.5 -156.5t151.5 -426.5v-39h-784q0 -233 233 -234q121 0 178 97h359q-43 -176 -192.5 -268.5t-342.5 -92.5q-270 0 -439 147.5t-169 411.5zM424 678h432q-14 74 -73.5 120t-137.5 46q-84 0 -144.5 -43t-76.5 -123zM316 1516 l227 163l289 -352l-166 -121z" />
<glyph unicode="&#xe9;" horiz-adv-x="1249" d="M45 524q0 260 161 410.5t421 150.5q272 0 423.5 -156.5t151.5 -426.5v-39h-784q0 -233 233 -234q121 0 178 97h359q-43 -176 -192.5 -268.5t-342.5 -92.5q-270 0 -439 147.5t-169 411.5zM424 678h432q-14 74 -73.5 120t-137.5 46q-84 0 -144.5 -43t-76.5 -123zM418 1327 l288 352l228 -163l-351 -310z" />
<glyph unicode="&#xea;" horiz-adv-x="1249" d="M45 524q0 260 161 410.5t421 150.5q272 0 423.5 -156.5t151.5 -426.5v-39h-784q0 -233 233 -234q121 0 178 97h359q-43 -176 -192.5 -268.5t-342.5 -92.5q-270 0 -439 147.5t-169 411.5zM424 678h432q-14 74 -73.5 120t-137.5 46q-84 0 -144.5 -43t-76.5 -123zM174 1362 l446 336l453 -336l-158 -172l-295 227l-295 -227z" />
<glyph unicode="&#xeb;" horiz-adv-x="1249" d="M45 524q0 260 161 410.5t421 150.5q272 0 423.5 -156.5t151.5 -426.5v-39h-784q0 -233 233 -234q121 0 178 97h359q-43 -176 -192.5 -268.5t-342.5 -92.5q-270 0 -439 147.5t-169 411.5zM424 678h432q-14 74 -73.5 120t-137.5 46q-84 0 -144.5 -43t-76.5 -123zM160 1438 q0 84 59 142t143 58q82 0 141.5 -59t59.5 -141q0 -84 -58.5 -142.5t-142.5 -58.5t-143 58.5t-59 142.5zM684 1438q0 84 59.5 142t143.5 58q82 0 141 -59t59 -141q0 -84 -58 -142.5t-142 -58.5t-143.5 58.5t-59.5 142.5z" />
<glyph unicode="&#xec;" horiz-adv-x="618" d="M123 0v1051h373v-1051h-373zM21 1516l227 163l289 -352l-166 -121z" />
<glyph unicode="&#xed;" horiz-adv-x="618" d="M123 0v1051h373v-1051h-373zM82 1327l288 352l228 -163l-351 -310z" />
<glyph unicode="&#xee;" horiz-adv-x="618" d="M123 0v1051h373v-1051h-373zM-141 1362l446 336l453 -336l-158 -172l-295 227l-295 -227z" />
<glyph unicode="&#xef;" horiz-adv-x="618" d="M123 0v1051h373v-1051h-373zM-155 1438q0 84 59 142t143 58q82 0 141.5 -59t59.5 -141q0 -84 -58.5 -142.5t-142.5 -58.5t-143 58.5t-59 142.5zM369 1438q0 84 59.5 142t143.5 58q82 0 141 -59t59 -141q0 -84 -58 -142.5t-142 -58.5t-143.5 58.5t-59.5 142.5z" />
<glyph unicode="&#xf0;" horiz-adv-x="1355" d="M45 522q0 242 170 390.5t389 148.5q51 0 121 -12q-104 129 -231 229l-267 -141l-135 145l223 119q-117 74 -231 123l217 213q223 -104 324 -170l260 137l133 -150l-213 -112q94 -80 154.5 -134.5t134 -139.5t115.5 -161.5t72 -181t30 -217.5q0 -164 -54.5 -291 t-146.5 -201.5t-204.5 -112.5t-239.5 -38q-102 0 -208 33t-200 97.5t-153.5 176t-59.5 250.5zM438 524q0 -102 64.5 -168.5t175 -66.5t175.5 66.5t65 168.5q0 100 -65 169t-175.5 69t-175 -69t-64.5 -169z" />
<glyph unicode="&#xf1;" horiz-adv-x="1353" d="M123 0v1051h373v-136h4q115 170 336 170q203 0 299 -115.5t96 -320.5v-649h-373v512v32v37q0 9 -1 34.5t-4 38t-9 35t-14.5 32.5t-21.5 25.5t-29.5 22.5t-39 13t-49.5 6q-195 0 -194 -243v-545h-373zM269 1284q0 106 45 182q68 115 182 115q55 0 175 -35t159 -35 q35 0 51 17.5t31 56.5h174q-10 -127 -78 -225t-188 -98q-53 0 -159 37.5t-153 37.5q-23 0 -38 -13t-19 -23.5t-12 -38.5h-168z" />
<glyph unicode="&#xf2;" horiz-adv-x="1355" d="M45 524q0 258 183.5 409.5t449.5 151.5t449.5 -151.5t183.5 -409.5t-183.5 -408.5t-449.5 -150.5q-264 0 -448.5 150.5t-184.5 408.5zM438 524q0 -102 64.5 -168.5t175 -66.5t175.5 66.5t65 168.5q0 100 -65 169t-175.5 69t-175 -69t-64.5 -169zM369 1516l227 163 l289 -352l-166 -121z" />
<glyph unicode="&#xf3;" horiz-adv-x="1355" d="M45 524q0 258 183.5 409.5t449.5 151.5t449.5 -151.5t183.5 -409.5t-183.5 -408.5t-449.5 -150.5q-264 0 -448.5 150.5t-184.5 408.5zM438 524q0 -102 64.5 -168.5t175 -66.5t175.5 66.5t65 168.5q0 100 -65 169t-175.5 69t-175 -69t-64.5 -169zM471 1327l288 352 l228 -163l-351 -310z" />
<glyph unicode="&#xf4;" horiz-adv-x="1355" d="M45 524q0 258 183.5 409.5t449.5 151.5t449.5 -151.5t183.5 -409.5t-183.5 -408.5t-449.5 -150.5q-264 0 -448.5 150.5t-184.5 408.5zM438 524q0 -102 64.5 -168.5t175 -66.5t175.5 66.5t65 168.5q0 100 -65 169t-175.5 69t-175 -69t-64.5 -169zM228 1362l446 336 l453 -336l-158 -172l-295 227l-295 -227z" />
<glyph unicode="&#xf5;" horiz-adv-x="1355" d="M45 524q0 258 183.5 409.5t449.5 151.5t449.5 -151.5t183.5 -409.5t-183.5 -408.5t-449.5 -150.5q-264 0 -448.5 150.5t-184.5 408.5zM438 524q0 -102 64.5 -168.5t175 -66.5t175.5 66.5t65 168.5q0 100 -65 169t-175.5 69t-175 -69t-64.5 -169zM271 1284q0 106 45 182 q68 115 182 115q55 0 175 -35t159 -35q35 0 51 17.5t31 56.5h174q-10 -127 -78 -225t-188 -98q-53 0 -159 37.5t-153 37.5q-23 0 -38 -13t-19 -23.5t-12 -38.5h-168z" />
<glyph unicode="&#xf6;" horiz-adv-x="1355" d="M45 524q0 258 183.5 409.5t449.5 151.5t449.5 -151.5t183.5 -409.5t-183.5 -408.5t-449.5 -150.5q-264 0 -448.5 150.5t-184.5 408.5zM438 524q0 -102 64.5 -168.5t175 -66.5t175.5 66.5t65 168.5q0 100 -65 169t-175.5 69t-175 -69t-64.5 -169zM213 1438q0 84 59 142 t143 58q82 0 141.5 -59t59.5 -141q0 -84 -58.5 -142.5t-142.5 -58.5t-143 58.5t-59 142.5zM737 1438q0 84 59.5 142t143.5 58q82 0 141 -59t59 -141q0 -84 -58 -142.5t-142 -58.5t-143.5 58.5t-59.5 142.5z" />
<glyph unicode="&#xf7;" d="M178 373v307h1049v-307h-1049zM555 112.5q0 61.5 43 104.5t104.5 43t104.5 -43t43 -104.5t-43 -104.5t-104.5 -43t-104.5 43t-43 104.5zM555 940q0 61 43 104t104.5 43t104.5 -43t43 -104t-43 -104t-104.5 -43t-104.5 43t-43 104z" />
<glyph unicode="&#xf8;" horiz-adv-x="1355" d="M43 33l135 133q-133 145 -133 358q0 258 183.5 409.5t449.5 151.5q193 0 346 -81l145 143l144 -127l-135 -135q133 -150 133 -361q0 -258 -183.5 -408.5t-449.5 -150.5q-195 0 -346 82l-146 -143zM438 524q0 -51 15 -86l313 310q-43 14 -88 14q-111 0 -175.5 -69 t-64.5 -169zM590 303q37 -14 88 -14q111 0 175.5 66.5t64.5 168.5q0 47 -15 88z" />
<glyph unicode="&#xf9;" horiz-adv-x="1349" d="M117 418v633h372v-562q0 -111 40 -169t146.5 -58t146.5 58.5t40 168.5v562h373v-633q0 -453 -559 -453t-559 453zM357 1516l227 163l289 -352l-166 -121z" />
<glyph unicode="&#xfa;" horiz-adv-x="1349" d="M117 418v633h372v-562q0 -111 40 -169t146.5 -58t146.5 58.5t40 168.5v562h373v-633q0 -453 -559 -453t-559 453zM480 1327l288 352l228 -163l-351 -310z" />
<glyph unicode="&#xfb;" horiz-adv-x="1349" d="M117 418v633h372v-562q0 -111 40 -169t146.5 -58t146.5 58.5t40 168.5v562h373v-633q0 -453 -559 -453t-559 453zM226 1362l446 336l453 -336l-158 -172l-295 227l-295 -227z" />
<glyph unicode="&#xfc;" horiz-adv-x="1349" d="M117 418v633h372v-562q0 -111 40 -169t146.5 -58t146.5 58.5t40 168.5v562h373v-633q0 -453 -559 -453t-559 453zM211 1438q0 84 59 142t143 58q82 0 141.5 -59t59.5 -141q0 -84 -58.5 -142.5t-142.5 -58.5t-143 58.5t-59 142.5zM735 1438q0 84 59.5 142t143.5 58 q82 0 141 -59t59 -141q0 -84 -58 -142.5t-142 -58.5t-143.5 58.5t-59.5 142.5z" />
<glyph unicode="&#xfd;" horiz-adv-x="1339" d="M-31 1051h430l281 -539l274 539h424l-841 -1575h-418l358 667zM494 1327l288 352l228 -163l-351 -310z" />
<glyph unicode="&#xfe;" horiz-adv-x="1396" d="M111 -524v2224h372v-768h4q49 76 135.5 114.5t182.5 38.5q229 0 379.5 -165.5t150.5 -397t-148.5 -394.5t-377.5 -163q-209 0 -326 135v-624h-372zM471 524q0 -102 64.5 -168.5t175 -66.5t175 66.5t64.5 168.5q0 100 -64.5 169t-175 69t-175 -69t-64.5 -169z" />
<glyph unicode="&#xff;" horiz-adv-x="1339" d="M-31 1051h430l281 -539l274 539h424l-841 -1575h-418l358 667zM236 1438q0 84 59 142t143 58q82 0 141.5 -59t59.5 -141q0 -84 -58.5 -142.5t-142.5 -58.5t-143 58.5t-59 142.5zM760 1438q0 84 59.5 142t143.5 58q82 0 141 -59t59 -141q0 -84 -58 -142.5t-142 -58.5 t-143.5 58.5t-59.5 142.5z" />
<glyph unicode="&#x131;" horiz-adv-x="618" d="M123 0v1051h373v-1051h-373z" />
<glyph unicode="&#x152;" horiz-adv-x="2334" d="M53 772q0 217 108.5 406.5t295 303t403.5 113.5q299 0 492 -192v141h868v-340h-469v-258h436v-340h-436v-266h469v-340h-868v170q-203 -221 -492 -221q-217 0 -403.5 113.5t-295 303t-108.5 406.5zM471 772q0 -178 127 -306t305 -128t304 128t126 306q0 180 -125 307 t-305 127q-178 0 -305 -127t-127 -307z" />
<glyph unicode="&#x153;" horiz-adv-x="2093" d="M43 524q0 258 170 409.5t432 151.5q137 0 237.5 -34.5t192.5 -122.5q121 158 400 157q272 0 423.5 -156.5t151.5 -426.5v-39h-784q0 -233 233 -234q121 0 178 97h359q-43 -176 -192.5 -268.5t-342.5 -92.5q-297 0 -426 182q-90 -100 -188.5 -141t-237.5 -41 q-266 0 -436 148.5t-170 410.5zM436 524q0 -98 71 -166.5t169 -68.5t168.5 68.5t70.5 166.5q0 96 -70.5 167t-168.5 71t-169 -71t-71 -167zM1266 678h432q-14 74 -73.5 120t-137.5 46q-84 0 -144.5 -43t-76.5 -123z" />
<glyph unicode="&#x178;" horiz-adv-x="1462" d="M-39 1544h481l289 -420l289 420h481l-569 -803v-741h-402v741zM287 1870q0 84 59 142t143 58q82 0 141.5 -59t59.5 -141q0 -84 -58.5 -142.5t-142.5 -58.5t-143 58.5t-59 142.5zM811 1870q0 84 59.5 142t143.5 58q82 0 141 -59t59 -141q0 -84 -58 -142.5t-142 -58.5 t-143.5 58.5t-59.5 142.5z" />
<glyph unicode="&#x2c6;" horiz-adv-x="1208" d="M154 1362l446 336l453 -336l-158 -172l-295 227l-295 -227z" />
<glyph unicode="&#x2da;" horiz-adv-x="935" d="M154 1431.5q0 122.5 90 180t221 57.5q133 0 225 -56.5t92 -178.5q0 -121 -91 -178.5t-220 -57.5q-131 0 -224 55.5t-93 178zM348 1434q0 -45 36 -66.5t85 -21.5q47 0 83 21.5t36 66.5t-36 66.5t-83 21.5q-49 0 -85 -21.5t-36 -66.5z" />
<glyph unicode="&#x2dc;" horiz-adv-x="1124" d="M154 1284q0 106 45 182q68 115 182 115q55 0 175 -35t159 -35q35 0 51 17.5t31 56.5h174q-10 -127 -78 -225t-188 -98q-53 0 -159 37.5t-153 37.5q-23 0 -38 -13t-19 -23.5t-12 -38.5h-168z" />
<glyph unicode="&#x3bc;" horiz-adv-x="1349" d="M117 -524v1575h372v-562q0 -111 40 -169t146.5 -58t146.5 58.5t40 168.5v562h373v-633q0 -127 -46 -220.5t-122 -141.5t-152.5 -69.5t-156.5 -21.5q-164 0 -269 101v-590h-372z" />
<glyph unicode="&#x2000;" horiz-adv-x="1064" />
<glyph unicode="&#x2001;" horiz-adv-x="2129" />
<glyph unicode="&#x2002;" horiz-adv-x="1064" />
<glyph unicode="&#x2003;" horiz-adv-x="2129" />
<glyph unicode="&#x2004;" horiz-adv-x="708" />
<glyph unicode="&#x2005;" horiz-adv-x="532" />
<glyph unicode="&#x2006;" horiz-adv-x="354" />
<glyph unicode="&#x2007;" horiz-adv-x="354" />
<glyph unicode="&#x2008;" horiz-adv-x="266" />
<glyph unicode="&#x2009;" horiz-adv-x="425" />
<glyph unicode="&#x200a;" horiz-adv-x="116" />
<glyph unicode="&#x2010;" horiz-adv-x="802" d="M109 504v307h585v-307h-585z" />
<glyph unicode="&#x2011;" horiz-adv-x="802" d="M109 504v307h585v-307h-585z" />
<glyph unicode="&#x2012;" horiz-adv-x="802" d="M109 504v307h585v-307h-585z" />
<glyph unicode="&#x2013;" horiz-adv-x="1024" d="M0 504v307h1024v-307h-1024z" />
<glyph unicode="&#x2014;" horiz-adv-x="2048" d="M266 504v307h1516v-307h-1516z" />
<glyph unicode="&#x2018;" horiz-adv-x="761" d="M39 866l377 678h237l-266 -678h-348z" />
<glyph unicode="&#x2019;" horiz-adv-x="761" d="M109 866l266 678h348l-377 -678h-237z" />
<glyph unicode="&#x201a;" horiz-adv-x="692" d="M39 -287l266 678h348l-377 -678h-237z" />
<glyph unicode="&#x201c;" horiz-adv-x="1286" d="M39 866l377 678h237l-266 -678h-348zM563 866l377 678h238l-267 -678h-348z" />
<glyph unicode="&#x201d;" horiz-adv-x="1286" d="M109 866l266 678h348l-377 -678h-237zM633 866l266 678h348l-377 -678h-237z" />
<glyph unicode="&#x201e;" horiz-adv-x="1216" d="M39 -287l266 678h348l-377 -678h-237zM563 -287l266 678h349l-377 -678h-238z" />
<glyph unicode="&#x2022;" d="M317 772q0 162 112 274.5t275.5 112.5t274.5 -112.5t111 -274.5q0 -160 -111 -272.5t-274.5 -112.5t-275.5 112.5t-112 272.5z" />
<glyph unicode="&#x2026;" horiz-adv-x="2048" d="M102 199q0 100 70 169.5t170 69.5t170 -69.5t70 -169.5q0 -98 -70 -169t-170 -71t-170 71t-70 169zM784 199q0 100 70 169.5t170 69.5t170 -69.5t70 -169.5q0 -98 -70 -169t-170 -71t-170 71t-70 169zM1466 199q0 100 70 169.5t170 69.5t170 -69.5t70 -169.5 q0 -98 -70 -169t-170 -71t-170 71t-70 169z" />
<glyph unicode="&#x202f;" horiz-adv-x="425" />
<glyph unicode="&#x2039;" horiz-adv-x="724" d="M53 655l353 504l204 -141l-258 -363l264 -356l-210 -147z" />
<glyph unicode="&#x203a;" horiz-adv-x="724" d="M109 299l264 356l-258 363l204 141l353 -504l-353 -503z" />
<glyph unicode="&#x205f;" horiz-adv-x="532" />
<glyph unicode="&#x2122;" horiz-adv-x="1925" d="M84 1384v160h702v-160h-251v-667h-199v667h-252zM887 717v827h291l186 -489l186 489h291v-827h-180v667h-4l-240 -667h-106l-240 667h-4v-667h-180z" />
<glyph unicode="&#xe000;" horiz-adv-x="1050" d="M0 1050h1050v-1050h-1050v1050z" />
<glyph unicode="&#xfb01;" horiz-adv-x="1390" d="M16 743v308h131v133q0 131 18.5 210t88.5 158q143 168 367 168q88 0 159 -37v-321q-82 35 -131 35q-70 0 -99.5 -42t-29.5 -134v-170h260v-308h-260v-743h-373v743h-131zM872 1454q0 86 61.5 147.5t147.5 61.5t147.5 -61.5t61.5 -147.5t-61.5 -147.5t-147.5 -61.5 t-147.5 61.5t-61.5 147.5zM895 0v1051h373v-1051h-373z" />
<glyph unicode="&#xfb02;" horiz-adv-x="1413" d="M16 743v308h131v133q0 131 18.5 210t88.5 158q143 168 367 168q88 0 159 -37v-321q-82 35 -131 35q-70 0 -99.5 -42t-29.5 -134v-170h260v-308h-260v-743h-373v743h-131zM918 0v1700h372v-1700h-372z" />
<glyph unicode="&#xfb03;" horiz-adv-x="2207" d="M1689 1454q0 86 61.5 147.5t147.5 61.5t147.5 -61.5t61.5 -147.5t-61.5 -147.5t-147.5 -61.5t-147.5 61.5t-61.5 147.5zM1712 0v1051h373v-1051h-373zM824 743v308h131v133q0 131 18.5 210t87.5 158q143 168 367 168q88 0 160 -37v-321q-82 35 -131 35q-70 0 -100 -42 t-30 -134v-170h261v-308h-261v-743h-372v743h-131zM29 743v308h131v133q0 131 18.5 210t87.5 158q143 168 367 168q88 0 160 -37v-321q-82 35 -131 35q-70 0 -100 -42t-30 -134v-170h261v-308h-261v-743h-372v743h-131z" />
<glyph unicode="&#xfb04;" horiz-adv-x="2207" d="M1712 0v1700h373v-1700h-373zM824 743v308h131v133q0 131 18.5 210t87.5 158q143 168 367 168q88 0 160 -37v-321q-82 35 -131 35q-70 0 -100 -42t-30 -134v-170h261v-308h-261v-743h-372v743h-131zM29 743v308h131v133q0 131 18.5 210t87.5 158q143 168 367 168 q88 0 160 -37v-321q-82 35 -131 35q-70 0 -100 -42t-30 -134v-170h261v-308h-261v-743h-372v743h-131z" />
</font>
</defs>
</svg>
