<?xml version="1.0" standalone="no"?>
<!DOCTYPE svg PUBLIC "-//W3C//DTD SVG 1.1//EN" "http://www.w3.org/Graphics/SVG/1.1/DTD/svg11.dtd" >
<svg xmlns="http://www.w3.org/2000/svg">
<metadata>
This is a custom SVG webfont generated by Font Squirrel.
Copyright   :  Copyright c 1987 Fundicion Tipografica Neufville S A This record material and the data recorded thereon is the property of Fundicion Tipografica Neufville S A and Adobe Systems Incorporated or its licensors and may not be reproduced used displayed modified disclosed or transferred in any manner without the express written approval of Fundicion Tipografica Neufville S A and Adobe Systems Incorporated 
</metadata>
<defs>
<font id="FuturaMedium" horiz-adv-x="1183" >
<font-face units-per-em="2048" ascent="1638" descent="-410" />
<missing-glyph horiz-adv-x="591" />
<glyph unicode=" "  horiz-adv-x="591" />
<glyph unicode="&#x09;" horiz-adv-x="591" />
<glyph unicode="&#xa0;" horiz-adv-x="591" />
<glyph unicode="!" horiz-adv-x="657" d="M211 86q0 47 35 83t84 36t84 -36t35 -83q0 -49 -35 -84t-84 -35t-84 35t-35 84zM238 356v1188h184v-1188h-184z" />
<glyph unicode="&#x22;" horiz-adv-x="899" d="M184 1544h201l-37 -672h-127zM514 1544h201l-37 -672h-127z" />
<glyph unicode="#" d="M51 430v164h236l55 315h-215v164h244l73 397h158l-74 -397h254l72 397h162l-72 -397h189v-164h-220l-55 -315h207v-164h-240l-77 -430h-156l76 430h-252l-82 -430h-154l76 430h-205zM446 594h252l56 315h-252z" />
<glyph unicode="$" d="M102 397l185 39q27 -135 94.5 -203.5t198.5 -85.5v615l-74 37q-143 74 -219 155.5t-76 219.5q0 154 107.5 272.5t261.5 130.5v184h102v-184q233 -23 350 -238l-162 -92q-59 113 -188 152v-481q184 -80 291.5 -190t107.5 -282q0 -168 -117.5 -312t-281.5 -167v-194h-102 v194q-178 2 -313.5 127t-164.5 303zM389 1188q0 -145 191 -221v432q-82 -12 -136.5 -71.5t-54.5 -139.5zM682 160q94 20 154.5 100t60.5 178q0 164 -215 277v-555z" />
<glyph unicode="%" horiz-adv-x="1449" d="M35 1224.5q0 145.5 106.5 249t254 103.5t254 -103.5t106.5 -249t-107.5 -248t-253 -102.5t-253 102.5t-107.5 248zM158 1225q0 -92 70.5 -160t167 -68t167 68t70.5 160q0 94 -70.5 161.5t-167 67.5t-167 -67.5t-70.5 -161.5zM227 18l903 1559l93 -53l-901 -1557z M696 317.5q0 145.5 106.5 249t254 103.5t254 -103.5t106.5 -249t-107.5 -248t-253 -102.5t-253 102.5t-107.5 248zM819 317q0 -92 71 -159.5t167 -67.5t166.5 67.5t70.5 159.5q0 94 -70.5 162t-166.5 68t-167 -68t-71 -162z" />
<glyph unicode="&#x26;" horiz-adv-x="1417" d="M109 422q0 133 68.5 223t201.5 186l96 70q-170 178 -170 338q0 156 100.5 247t256.5 91q147 0 251.5 -87t104.5 -235q0 -61 -23.5 -117.5t-70.5 -106.5t-86 -83t-101 -78l322 -389l180 209l123 -127l-188 -221l276 -342h-238l-168 209q-205 -242 -462 -242 q-197 0 -335 129t-138 326zM289 424q0 -111 88 -198t198 -87q68 0 137.5 35t112.5 72t105 98l-342 418l-19 -12q-2 -2 -41 -29t-49 -34t-44 -33.5t-47 -40t-37.5 -40t-34 -47t-18.5 -48t-9 -54.5zM485 1262q0 -37 16.5 -75t30 -57.5t46.5 -60.5l51 -65l24 16q8 6 40 29.5 t44.5 35t36 35t34.5 41t20.5 44t9.5 52.5q0 80 -50.5 124t-130.5 44q-72 0 -122 -45.5t-50 -117.5z" />
<glyph unicode="'" horiz-adv-x="567" d="M184 1544h201l-37 -672h-127z" />
<glyph unicode="(" horiz-adv-x="598" d="M117 630.5q0 268.5 53 543t160 483.5l151 -113q-176 -369 -176 -913.5t176 -913.5l-151 -112q-106 211 -159.5 484t-53.5 541.5z" />
<glyph unicode=")" horiz-adv-x="598" d="M117 -283q176 369 176 914t-176 913l151 113q106 -209 159.5 -483.5t53.5 -543t-53 -541.5t-160 -484z" />
<glyph unicode="*" horiz-adv-x="884" d="M129 1124l174 101l-172 102l64 117l182 -101v201h141v-194l166 98l72 -121l-174 -102l174 -103l-72 -118l-166 102v-197h-141v199l-178 -100z" />
<glyph unicode="+" d="M68 436v176h436v437h176v-437h436v-176h-436v-436h-176v436h-436z" />
<glyph unicode="," horiz-adv-x="591" d="M111 -319l225 563l160 -64l-273 -547z" />
<glyph unicode="-" horiz-adv-x="679" d="M117 580v153h448v-153h-448z" />
<glyph unicode="." horiz-adv-x="591" d="M178 86q0 47 35 83t84 36t84 -36t35 -83q0 -49 -35 -84t-84 -35t-84 35t-35 84z" />
<glyph unicode="/" horiz-adv-x="1128" d="M66 -193l852 1971l147 -66l-854 -1970z" />
<glyph unicode="0" d="M53 772q0 129 30 261t89 258t169 206t251 80t250.5 -80t169 -206t89 -258t29.5 -261q0 -100 -17 -205.5t-58 -214t-101.5 -192.5t-153.5 -138.5t-208 -54.5t-208 54.5t-153.5 138.5t-101.5 192.5t-58.5 214t-17.5 205.5zM238 774q0 -90 17 -190.5t55 -205t111 -172 t171 -67.5t171 67.5t110.5 172t55 205t17.5 190.5t-17.5 191.5t-55 206t-110.5 173t-171 68.5t-171 -68.5t-111 -173t-55 -206t-17 -191.5z" />
<glyph unicode="1" d="M252 1368l106 176h347v-1544h-185v1368h-268z" />
<glyph unicode="2" d="M92 0l676 829q137 168 137 277q0 121 -91 208t-212 87q-117 0 -203 -83t-94 -200h-192q23 209 152.5 334t336.5 125q201 0 344.5 -132t143.5 -331q0 -176 -115 -317l-508 -621h623v-176h-998z" />
<glyph unicode="3" d="M109 381h186q14 -111 99 -178.5t200 -67.5q127 0 211 88t84 215q0 145 -91 227.5t-235 71.5v160q303 0 303 248q0 117 -75.5 190.5t-192.5 73.5q-104 0 -172 -60.5t-84 -160.5h-190q27 190 144.5 289.5t308 99.5t318.5 -113.5t128 -302.5q0 -238 -197 -348 q219 -104 219 -383q0 -211 -140 -337t-353 -126q-188 0 -325.5 115t-145.5 299z" />
<glyph unicode="4" d="M14 225l947 1385v-1217h176v-168h-176v-225h-185v225h-762zM338 393h438v637h-4z" />
<glyph unicode="5" d="M61 238l144 135q35 -96 136 -163t206 -67q156 0 264.5 112t108.5 267q0 150 -110 258.5t-259 108.5q-82 0 -161 -37t-128 -100h-37l238 792h618v-176h-485l-96 -317l108 6q217 0 356.5 -160t139.5 -381q0 -242 -165 -395.5t-407 -153.5q-145 0 -275 73t-196 198z" />
<glyph unicode="6" d="M82 461q0 182 168 407l526 709l139 -94l-411 -557l4 -4q74 37 151 36q186 0 316.5 -146t130.5 -337q0 -211 -149.5 -359.5t-360.5 -148.5q-203 0 -358.5 146.5t-155.5 347.5zM266 465q0 -133 97.5 -229.5t230.5 -96.5q131 0 229.5 94.5t98.5 221.5q0 139 -100.5 235 t-227.5 96t-227.5 -98t-100.5 -223z" />
<glyph unicode="7" d="M96 59l799 1309h-799v176h1112l-962 -1577z" />
<glyph unicode="8" d="M109 430q0 129 63.5 229.5t179.5 141.5q-203 115 -202 346q0 186 128 308t314 122t314 -122t128 -308q0 -231 -203 -346q117 -41 180.5 -141.5t63.5 -229.5q0 -209 -140 -336t-343 -127t-343 127t-140 336zM293 430q0 -115 92 -203t207 -88t207 88t92 203q0 121 -90 206 t-209 85t-209 -85t-90 -206zM330 1147q0 -92 83 -177t179 -85t179 85t83 177q0 111 -79 188.5t-183.5 77.5t-183 -77.5t-78.5 -188.5z" />
<glyph unicode="9" d="M106 1069q0 211 150 359.5t360 148.5q203 0 358.5 -146.5t155.5 -347.5q0 -182 -167 -407l-527 -709l-139 96l412 555l-4 5q-57 -29 -150 -29q-188 0 -318.5 143.5t-130.5 331.5zM291 1081q0 -133 101.5 -228t225.5 -95q143 0 235.5 96t92.5 227q0 125 -95 224.5 t-220 99.5q-139 0 -239.5 -96.5t-100.5 -227.5z" />
<glyph unicode=":" horiz-adv-x="591" d="M178 86q0 47 35 83t84 36t84 -36t35 -83q0 -49 -35 -84t-84 -35t-84 35t-35 84zM178 868q0 47 35 83t84 36t84 -36t35 -83q0 -49 -35 -83.5t-84 -34.5t-84 34.5t-35 83.5z" />
<glyph unicode=";" horiz-adv-x="591" d="M94 -319l225 563l160 -64l-272 -547zM274 868q0 47 35 83t84 36t84 -36t35 -83q0 -49 -35 -83.5t-84 -34.5t-84 34.5t-35 83.5z" />
<glyph unicode="&#x3c;" d="M68 453v143l1048 424v-193l-786 -303l786 -303v-192z" />
<glyph unicode="=" d="M68 260v176h1048v-176h-1048zM68 612v176h1048v-176h-1048z" />
<glyph unicode="&#x3e;" d="M68 29v192l786 303l-786 303v193l1048 -424v-143z" />
<glyph unicode="?" horiz-adv-x="927" d="M104 1229q-8 145 105 246.5t262 101.5q156 0 262.5 -104.5t106.5 -258.5q0 -160 -111 -253q-63 -55 -254 -115q-150 -45 -149 -150q0 -61 41 -104t102 -43q66 0 106.5 46t38.5 112h187q6 -131 -96.5 -230.5t-235.5 -99.5q-137 0 -233.5 95t-96.5 233q0 131 67.5 193.5 t190.5 107.5q10 4 41 15t43.5 15t39 15.5t36.5 18.5t30.5 20.5t29 25.5t18.5 28.5t14 35t4 41.5q0 84 -53 133t-135 49q-72 0 -124 -52.5t-52 -123.5q0 -20 12 -66h-192zM350 86q0 47 35 83t84 36t84 -36t35 -83q0 -49 -35 -84t-84 -35t-84 35t-35 84z" />
<glyph unicode="@" horiz-adv-x="1638" d="M74 772q0 342 226 573.5t556 231.5q285 0 481 -178q229 -199 230 -471q0 -268 -127 -434q-70 -92 -154 -137.5t-162 -41.5q-90 4 -110 127q-127 -127 -279 -127q-137 0 -240.5 112t-103.5 267q0 195 117 341.5t301 146.5q160 0 272 -146l29 127h145l-102 -526 q-18 -51 -17 -113.5t46 -62.5q74 0 147.5 123t73.5 270q0 254 -156.5 406.5t-396.5 152.5q-258 0 -435 -187.5t-177 -453.5q0 -276 189 -458.5t458 -182.5q264 0 381 98l153 -123q-131 -70 -249.5 -104.5t-301.5 -34.5q-334 0 -564 229.5t-230 575.5zM551 709 q0 -94 56.5 -164t148.5 -70q127 0 192.5 81t81.5 206q14 123 -43 191.5t-166 68.5q-119 0 -194.5 -96t-75.5 -217z" />
<glyph unicode="A" horiz-adv-x="1439" d="M-16 0l737 1610l737 -1610h-207l-176 387h-708l-177 -387h-206zM446 563h549l-274 625z" />
<glyph unicode="B" horiz-adv-x="1095" d="M131 0v1544h188q119 0 213.5 -18.5t177.5 -62.5t129 -131t46 -212q0 -88 -45 -173t-121 -120v-4q133 -25 221 -138.5t88 -252.5q0 -217 -155.5 -324.5t-380.5 -107.5h-361zM324 172h147q365 0 365 272q0 78 -36 132.5t-97.5 81t-125 38t-135.5 11.5h-118v-535zM324 860 h49q160 0 246 53.5t86 204.5q0 150 -85 202t-243 52h-53v-512z" />
<glyph unicode="C" horiz-adv-x="1353" d="M61 764q0 342 240 577.5t582 235.5q219 0 389 -104v-224q-170 152 -408 152q-256 0 -433 -185.5t-177 -445.5q0 -256 175 -441.5t431 -185.5q233 0 412 160v-227q-184 -109 -406 -109q-332 0 -568.5 231.5t-236.5 565.5z" />
<glyph unicode="D" horiz-adv-x="1361" d="M131 0v1544h320q375 0 620.5 -197.5t245.5 -566.5q0 -379 -244 -579.5t-629 -200.5h-313zM324 176h67q156 0 283 31t230.5 98.5t161.5 186t58 280.5q0 164 -58 283t-162.5 185.5t-230.5 97t-282 30.5h-67v-1192z" />
<glyph unicode="E" horiz-adv-x="1067" d="M147 0v1544h830v-176h-637v-432h618v-176h-618v-584h637v-176h-830z" />
<glyph unicode="F" horiz-adv-x="970" d="M145 0v1544h748v-176h-555v-434h536v-176h-536v-758h-193z" />
<glyph unicode="G" horiz-adv-x="1597" d="M43 768q0 334 234.5 571.5t566.5 237.5q182 0 349 -79t280 -220l-136 -129q-84 115 -215 183.5t-270 68.5q-258 0 -437 -183.5t-179 -443.5q0 -248 177 -439.5t423 -191.5q184 0 341.5 137.5t163.5 321.5h-399v176h612v-61q0 -322 -204.5 -536t-526 -214t-551 238.5 t-229.5 562.5z" />
<glyph unicode="H" horiz-adv-x="1382" d="M131 0v1544h193v-622h735v622h192v-1544h-192v741h-735v-741h-193z" />
<glyph unicode="I" horiz-adv-x="475" d="M141 0v1544h193v-1544h-193z" />
<glyph unicode="J" horiz-adv-x="741" d="M-39 35l96 164q68 -51 154 -52q45 0 81 16.5t58.5 37t39 61.5t23.5 69.5t11 82t4 75.5v74v981h193v-981q0 -125 -15.5 -220t-57.5 -186t-129 -140.5t-216 -49.5t-242 68z" />
<glyph unicode="K" horiz-adv-x="1228" d="M147 0v1544h193v-670l655 670h252l-694 -694l707 -850h-261l-581 719l-78 -74v-645h-193z" />
<glyph unicode="L" horiz-adv-x="788" d="M147 0v1544h193v-1368h469v-176h-662z" />
<glyph unicode="M" horiz-adv-x="1742" d="M27 0l315 1610l530 -1217l531 1217l315 -1610h-198l-181 1020h-4l-463 -1053l-462 1053h-4l-181 -1020h-198z" />
<glyph unicode="N" horiz-adv-x="1607" d="M129 0v1618l1159 -1215v1141h193v-1607l-1159 1214v-1151h-193z" />
<glyph unicode="O" horiz-adv-x="1695" d="M39 772q0 332 238.5 568.5t570.5 236.5t570.5 -236.5t238.5 -568.5q0 -342 -235.5 -573.5t-573.5 -231.5t-573.5 231.5t-235.5 573.5zM231 772q0 -262 182.5 -443.5t434.5 -181.5t434 181.5t182 443.5q0 260 -175 442.5t-441 182.5t-441.5 -182.5t-175.5 -442.5z" />
<glyph unicode="P" horiz-adv-x="1013" d="M147 0v1544h222q342 0 482 -111.5t140 -334.5q0 -229 -150.5 -340t-389.5 -111h-111v-647h-193zM340 819h61q84 0 148.5 10.5t128 38t98.5 87t35 147.5q0 86 -37 143.5t-104.5 83t-131 34.5t-147.5 9h-51v-553z" />
<glyph unicode="Q" horiz-adv-x="1695" d="M39 772q0 332 238.5 568.5t570.5 236.5t570.5 -236.5t238.5 -568.5q0 -164 -63.5 -312.5t-178.5 -256.5l240 -236h-234l-133 137q-199 -137 -440 -137q-338 0 -573.5 231.5t-235.5 573.5zM231 772q0 -262 182.5 -443.5t434.5 -181.5q168 0 307 89l-354 346h239l244 -242 q86 76 133 195.5t47 236.5q0 260 -175 442.5t-441 182.5t-441.5 -182.5t-175.5 -442.5z" />
<glyph unicode="R" horiz-adv-x="1112" d="M147 0v1544h234q88 0 142.5 -3t131 -19.5t133.5 -48.5q94 -55 148.5 -155.5t54.5 -213.5q0 -168 -102.5 -290t-267.5 -142l487 -672h-234l-454 653h-80v-653h-193zM340 813h61q84 0 148.5 10.5t128 38t98.5 87t35 147.5q0 276 -420 276h-51v-559z" />
<glyph unicode="S" horiz-adv-x="1099" d="M66 399l194 41q-2 -125 85 -209t214 -84q123 0 204 89.5t81 212.5q0 113 -71 177t-195 115l-107 45q-158 68 -247 156t-89 236q0 180 135.5 289.5t319.5 109.5q266 0 397 -234l-153 -92q-86 145 -248 146q-98 0 -178 -61.5t-80 -157.5q0 -139 215 -222l110 -43 q184 -72 283.5 -178t99.5 -286q0 -209 -142 -345.5t-351 -136.5q-186 0 -319 122t-158 310z" />
<glyph unicode="T" horiz-adv-x="933" d="M4 1368v176h926v-176h-367v-1368h-192v1368h-367z" />
<glyph unicode="U" horiz-adv-x="1370" d="M121 567v977h192v-911q0 -485 373 -485.5t373 485.5v911h192v-977q0 -262 -152.5 -431t-412.5 -169t-412.5 169t-152.5 431z" />
<glyph unicode="V" horiz-adv-x="1310" d="M-14 1544h211l460 -1143l459 1143h211l-670 -1626z" />
<glyph unicode="W" horiz-adv-x="2103" d="M-25 1544h209l432 -1106l437 1139l436 -1139l432 1106h209l-641 -1605l-436 1132l-437 -1132z" />
<glyph unicode="X" horiz-adv-x="1175" d="M0 0l485 809l-426 735h220l315 -563l336 563h219l-444 -735l469 -809h-216l-364 633l-379 -633h-215z" />
<glyph unicode="Y" horiz-adv-x="1173" d="M-12 1544h221l379 -659l379 659h221l-504 -872v-672h-192v672z" />
<glyph unicode="Z" horiz-adv-x="1130" d="M18 0l783 1368h-672v176h985l-782 -1368h782v-176h-1096z" />
<glyph unicode="[" horiz-adv-x="636" d="M125 -395v2052h389v-172h-201v-1708h201v-172h-389z" />
<glyph unicode="\" horiz-adv-x="1128" d="M63 1778h173l827 -1778h-172z" />
<glyph unicode="]" horiz-adv-x="636" d="M123 -223h201v1708h-201v172h389v-2052h-389v172z" />
<glyph unicode="^" d="M68 631l409 913h230l409 -913h-192l-332 741l-334 -741h-190z" />
<glyph unicode="_" horiz-adv-x="1024" d="M0 -231h1024v-154h-1024v154z" />
<glyph unicode="`" horiz-adv-x="737" d="M156 1413l170 90l256 -340l-90 -55z" />
<glyph unicode="a" horiz-adv-x="1138" d="M53 485q0 205 125 353.5t328 148.5q207 0 332 -188h4v159h184v-958h-184v150h-4q-123 -182 -326 -183q-211 0 -335 150.5t-124 367.5zM238 479q0 -143 81.5 -245.5t221.5 -102.5q145 0 228 100.5t83 247.5q0 145 -84 244.5t-227 99.5q-137 0 -220 -101.5t-83 -242.5z" />
<glyph unicode="b" horiz-adv-x="1138" d="M113 0v1778h184v-979h4q125 188 334 188q201 0 325.5 -148.5t124.5 -353.5q0 -217 -122.5 -367.5t-335.5 -150.5q-98 0 -183.5 49.5t-142.5 133.5h-4v-150h-184zM287 479q0 -143 82 -245.5t221 -102.5q145 0 228 100.5t83 247.5q0 145 -84 244.5t-227 99.5 q-137 0 -220 -101.5t-83 -242.5z" />
<glyph unicode="c" horiz-adv-x="903" d="M53 471q0 221 150.5 368.5t374.5 147.5q145 0 253 -63v-238q-113 129 -274 129q-133 0 -226 -100.5t-93 -235.5q0 -147 93 -243.5t238 -96.5q150 0 262 127v-235q-119 -63 -264 -64q-213 0 -363.5 145.5t-150.5 358.5z" />
<glyph unicode="d" horiz-adv-x="1138" d="M53 485q0 205 125 353.5t326 148.5q209 0 334 -188h4v979h184v-1778h-184v150h-4q-57 -84 -142.5 -133.5t-183.5 -49.5q-213 0 -336 150.5t-123 367.5zM238 479q0 -143 81.5 -245.5t221.5 -102.5q145 0 228 100.5t83 247.5q0 145 -84 244.5t-227 99.5q-137 0 -220 -101.5 t-83 -242.5z" />
<glyph unicode="e" horiz-adv-x="999" d="M53 471q0 229 121 372.5t346 143.5q219 0 334 -142.5t115 -367.5v-28h-731q2 -129 81.5 -223.5t206.5 -94.5q100 0 165 46t122 140l156 -88q-68 -123 -185.5 -192.5t-259.5 -69.5q-215 0 -343 143.5t-128 360.5zM248 588h536q-16 111 -85.5 175t-178.5 64 q-106 0 -181 -67.5t-91 -171.5z" />
<glyph unicode="f" horiz-adv-x="563" d="M80 786v172h84v467q0 377 309 377q68 0 129 -24v-187q-88 39 -123 39q-37 0 -63.5 -19.5t-38.5 -44t-19.5 -66.5t-8.5 -65.5t-1 -64.5v-412h254v-172h-254v-786h-184v786h-84z" />
<glyph unicode="g" horiz-adv-x="1136" d="M51 485q0 205 125 353.5t326 148.5q211 0 334 -192h4v163h184v-940q0 -272 -102.5 -419.5t-364.5 -147.5q-203 0 -332 117t-131 317h185q0 -127 78.5 -198.5t207.5 -71.5q158 0 216.5 92t58.5 260v183h-4q-57 -84 -142.5 -133.5t-183.5 -49.5q-213 0 -336 150.5 t-123 367.5zM236 479q0 -143 81.5 -245.5t221.5 -102.5q145 0 228 100.5t83 247.5q0 145 -84 244.5t-227 99.5q-137 0 -220 -101.5t-83 -242.5z" />
<glyph unicode="h" horiz-adv-x="1071" d="M127 0v1778h184v-949h4q41 76 120 117t169 41q188 0 264 -110.5t76 -305.5v-571h-184v549q0 141 -40 207.5t-171 66.5q-57 0 -100 -14t-68 -47t-40 -62.5t-21.5 -84t-7.5 -85t-1 -90.5v-440h-184z" />
<glyph unicode="i" horiz-adv-x="520" d="M133 1397q0 53 37 91t90 38t90 -38t37 -91q0 -51 -37 -88t-90 -37t-90 37t-37 88zM168 0v958h184v-958h-184z" />
<glyph unicode="j" horiz-adv-x="520" d="M133 1397q0 53 37 91t90 38t90 -38t37 -91q0 -51 -37 -88t-90 -37t-90 37t-37 88zM168 -549v1507h184v-1507h-184z" />
<glyph unicode="k" horiz-adv-x="946" d="M139 0v1778h185v-1180l360 360h244l-410 -397l451 -561h-240l-342 436l-63 -63v-373h-185z" />
<glyph unicode="l" horiz-adv-x="454" d="M135 0v1778h184v-1778h-184z" />
<glyph unicode="m" horiz-adv-x="1570" d="M121 0v958h184v-120h4q41 66 109.5 107.5t144.5 41.5q178 0 277 -170q45 78 124.5 124t170.5 46q317 0 317 -414v-573h-184v543q0 55 -5.5 97t-22.5 88t-55 70.5t-95.5 24.5t-97.5 -23.5t-61.5 -57t-33.5 -85t-15 -92.5t-3 -94v-471h-185v508q0 49 -2 82t-11 82 t-26.5 77.5t-52.5 51t-84 22.5q-70 0 -116 -31.5t-65.5 -90t-25.5 -109.5t-6 -121v-471h-184z" />
<glyph unicode="n" horiz-adv-x="1071" d="M127 0v958h184v-129h4q41 76 120 117t169 41q188 0 264 -110.5t76 -305.5v-571h-184v549q0 141 -40 207.5t-171 66.5q-57 0 -100 -14t-68 -47t-40 -62.5t-21.5 -84t-7.5 -85t-1 -90.5v-440h-184z" />
<glyph unicode="o" horiz-adv-x="1105" d="M41 477q0 215 148.5 362.5t363.5 147.5t363.5 -147.5t148.5 -362.5t-148.5 -362.5t-363.5 -147.5t-363.5 147.5t-148.5 362.5zM225 477q0 -135 96.5 -234.5t231.5 -99.5t231.5 99.5t96.5 234.5q0 137 -96.5 235.5t-231.5 98.5t-231.5 -98.5t-96.5 -235.5z" />
<glyph unicode="p" horiz-adv-x="1138" d="M113 -549v1507h184v-159h4q125 188 334 188q201 0 325.5 -148.5t124.5 -353.5q0 -217 -122.5 -367.5t-335.5 -150.5q-98 0 -183.5 49.5t-142.5 133.5h-4v-699h-184zM287 479q0 -143 82 -245.5t221 -102.5q145 0 228 100.5t83 247.5q0 145 -84 244.5t-227 99.5 q-137 0 -220 -101.5t-83 -242.5z" />
<glyph unicode="q" horiz-adv-x="1138" d="M53 485q0 205 125 353.5t326 148.5q209 0 334 -188h4v159h184v-1507h-184v699h-4q-57 -84 -142.5 -133.5t-183.5 -49.5q-213 0 -336 150.5t-123 367.5zM238 479q0 -143 81.5 -245.5t221.5 -102.5q145 0 228 100.5t83 247.5q0 145 -84 244.5t-227 99.5q-137 0 -220 -101.5 t-83 -242.5z" />
<glyph unicode="r" horiz-adv-x="718" d="M139 0v958h185v-155h6q35 86 103.5 135t158.5 49q78 0 151 -47l-84 -168q-45 39 -112 39q-72 0 -119 -29.5t-68.5 -84t-28.5 -106.5t-7 -120v-471h-185z" />
<glyph unicode="s" horiz-adv-x="786" d="M72 182l157 72q68 -123 174 -123q59 0 102.5 38t43.5 97.5t-68 104.5l-180 96q-94 51 -139 101t-45 141q0 117 83 197.5t199 80.5q180 0 263 -168l-150 -80q-41 84 -123 84q-39 0 -69.5 -27.5t-30.5 -66.5q0 -18 5 -33.5t20.5 -29t26.5 -23.5t36.5 -23.5t40 -20.5 t48.5 -21.5t46 -20.5q102 -47 161.5 -108.5t59.5 -163.5q0 -135 -97 -226.5t-233 -91.5q-109 0 -201.5 58.5t-129.5 156.5z" />
<glyph unicode="t" horiz-adv-x="491" d="M53 786v172h101v367h184v-367h180v-172h-180v-786h-184v786h-101z" />
<glyph unicode="u" horiz-adv-x="1048" d="M119 408v550h184v-530q0 -133 48 -211t173 -78t173 78t48 211v530h185v-550q0 -205 -100.5 -323t-305.5 -118t-305 118t-100 323z" />
<glyph unicode="v" horiz-adv-x="911" d="M-27 958h207l275 -598l276 598h207l-483 -991z" />
<glyph unicode="w" horiz-adv-x="1470" d="M-33 958h209l279 -610l282 664l281 -664l278 610h209l-487 -991l-281 641l-282 -641z" />
<glyph unicode="x" horiz-adv-x="1001" d="M-29 0l428 520l-344 438h217l228 -309l248 309h223l-353 -438l412 -520h-215l-315 389l-305 -389h-224z" />
<glyph unicode="y" horiz-adv-x="991" d="M-27 958h215l324 -608l301 608h207l-776 -1507h-209l377 713z" />
<glyph unicode="z" horiz-adv-x="1013" d="M4 0l649 786h-538v172h897l-650 -786h623v-172h-981z" />
<glyph unicode="{" horiz-adv-x="684" d="M98 555v150q154 68 154 309v372q0 113 60.5 192t113.5 79h160v-172h-82q-31 0 -45.5 -20.5t-16.5 -41t-2 -65.5v-377q0 -106 -36.5 -191t-64.5 -114t-54 -47q16 -10 36.5 -30.5t50 -60.5t49 -109t19.5 -150v-377q0 -45 2 -65.5t16.5 -41t45.5 -20.5h82v-172h-160 q-53 0 -113.5 78.5t-60.5 191.5v373q0 241 -154 309z" />
<glyph unicode="|" horiz-adv-x="1167" d="M496 0v1778h176v-1778h-176z" />
<glyph unicode="}" horiz-adv-x="684" d="M98 -225h82q31 0 45.5 20.5t16.5 41t2 65.5v377q0 82 19.5 150.5t49 108.5t50 60t36.5 31q-27 18 -54.5 47t-64 113.5t-36.5 191.5v377q0 45 -2 65.5t-16.5 41t-45.5 20.5h-82v172h160q53 0 113.5 -79t60.5 -192v-372q0 -242 154 -309v-150q-154 -68 -154 -309v-373 q0 -113 -60.5 -191.5t-113.5 -78.5h-160v172z" />
<glyph unicode="~" d="M68 465q45 66 62 88t62.5 72.5t91.5 71t97 20.5q113 0 250 -105q12 -10 37.5 -29.5t39 -29.5t32 -22.5t33.5 -17.5t30 -5q49 0 80.5 35t81.5 116q10 16 14 25l137 -102q-137 -250 -311 -250q-82 0 -236 104q-14 10 -42.5 29.5t-43 30t-35 22.5t-36 17.5t-27.5 5.5 q-49 0 -92 -41t-96 -127z" />
<glyph unicode="&#xa1;" horiz-adv-x="657" d="M211 922q0 47 35 82.5t84 35.5t84 -35.5t35 -82.5q0 -49 -35 -84t-84 -35t-84 35t-35 84zM238 -528v1190h184v-1190h-184z" />
<glyph unicode="&#xa2;" d="M205 772q0 193 118.5 337t307.5 173v160h98v-156q152 -8 250 -63v-236h-4q-96 125 -246 129v-672q150 20 250 127v-239q-102 -49 -215 -58l-35 -2v-174h-98v183q-186 29 -306 166t-120 325zM385 780q0 -115 67.5 -211t178.5 -118v653q-104 -12 -175 -115t-71 -209z" />
<glyph unicode="&#xa3;" d="M23 49q63 111 133.5 169t181.5 63q61 205 -16 335h-265v119h205q-119 225 -119 369q0 195 155 334t351 139q215 0 348 -132t144 -347l-185 -70v57q0 129 -85 220.5t-214 91.5q-125 0 -227 -97.5t-102 -212.5q0 -49 16 -102t33.5 -86t50.5 -87t45 -77h303v-119h-254 q53 -172 0 -352l152 -53q12 -4 56 -22.5t76 -27.5t60 -9q39 0 75 27.5t53.5 53t41.5 70.5l154 -94q-47 -109 -128 -175.5t-192 -66.5q-98 0 -268 68q-162 66 -237 65q-127 0 -181 -133z" />
<glyph unicode="&#xa4;" d="M70 614.5q0 155.5 86 290.5l-84 90l123 123l94 -90q129 98 303 98t303 -98l94 90l123 -123l-84 -90q86 -135 86 -290.5t-86 -290.5l84 -91l-123 -122l-94 90q-129 -98 -303 -98.5t-303 98.5l-94 -90l-123 122l84 91q-86 135 -86 290.5zM233 614q4 -143 107.5 -245.5 t251 -102.5t252 102.5t106.5 245.5q2 152 -100 250.5t-258 98.5t-258.5 -98.5t-100.5 -250.5z" />
<glyph unicode="&#xa5;" d="M-8 1544h221l379 -659l379 659h221l-324 -561h303v-119h-370l-113 -192v-21h483v-119h-483v-532h-192v532h-484v119h484v21l-111 192h-373v119h303z" />
<glyph unicode="&#xa6;" horiz-adv-x="1167" d="M496 0v711h176v-711h-176zM496 1067v711h176v-711h-176z" />
<glyph unicode="&#xa7;" d="M82 856q0 184 197 332q-90 102 -91 227q0 154 118 258.5t274 104.5q164 0 280.5 -92.5t126.5 -251.5h-178q-4 84 -72.5 133t-156.5 49q-86 0 -146.5 -59.5t-60.5 -145.5q0 -74 46 -121t128 -86l272 -137q63 -33 100 -54.5t86.5 -59.5t73 -86t23.5 -105 q0 -100 -50.5 -192.5t-131.5 -153.5q109 -102 108 -250q0 -176 -129 -285.5t-307 -109.5q-203 0 -333 118.5t-130 321.5v31h182q-4 -127 74 -215t205 -88q100 0 177 65.5t77 165.5q0 43 -17.5 78t-54.5 63.5t-61.5 43t-75.5 38.5l-289 142q-70 35 -105.5 56t-78.5 60 t-61.5 88t-18.5 117zM264 877q0 -37 13.5 -67t45 -53.5t52 -36.5t63.5 -34l359 -178q55 35 89 94.5t34 120.5q0 66 -40 104.5t-116 75.5l-377 191q-55 -35 -89 -94.5t-34 -122.5z" />
<glyph unicode="&#xa8;" horiz-adv-x="962" d="M141 1298q0 51 37 87t88 36t87 -35.5t36 -87t-36 -88t-87 -36.5q-53 0 -89 35.5t-36 88.5zM573 1298q0 51 37 87t88.5 36t87 -35.5t35.5 -87t-35.5 -88t-87 -36.5t-88.5 35.5t-37 88.5z" />
<glyph unicode="&#xa9;" horiz-adv-x="1638" d="M12 772q0 336 234.5 570.5t572.5 234.5t572.5 -234.5t234.5 -570.5t-234.5 -570.5t-572.5 -234.5t-572.5 234.5t-234.5 570.5zM143 772q0 -283 199 -478.5t477.5 -195.5t477 195.5t198.5 478.5t-198.5 478.5t-477 195.5t-477.5 -195.5t-199 -478.5zM403 778 q0 205 121 335t326 130q145 0 248.5 -82t130.5 -223h-125q-18 84 -86 129t-170 45q-156 0 -234.5 -97t-78.5 -233q0 -147 83.5 -241.5t233.5 -94.5q209 0 252 183h125q-18 -141 -126 -227.5t-251 -86.5q-201 0 -325 133t-124 330z" />
<glyph unicode="&#xaa;" horiz-adv-x="684" d="M25 754v98h634v-98h-634zM25 1276q0 123 81.5 212t213 89t217.5 -113h-2h4v95h120v-574h-120v88h-4q-80 -109 -211 -108q-137 0 -218 90t-81 221zM145 1272q0 -86 53.5 -147.5t143.5 -61.5q94 0 148.5 60.5t54.5 148.5t-54.5 147.5t-148.5 59.5q-88 0 -142.5 -61.5 t-54.5 -145.5z" />
<glyph unicode="&#xab;" horiz-adv-x="1071" d="M61 655l373 492l115 -84l-305 -408l305 -391l-115 -84zM455 655l372 492l115 -84l-305 -408l305 -391l-115 -84z" />
<glyph unicode="&#xac;" d="M68 612v176h1048v-552h-176v376h-872z" />
<glyph unicode="&#xad;" horiz-adv-x="679" d="M117 580v153h448v-153h-448z" />
<glyph unicode="&#xae;" horiz-adv-x="1638" d="M12 772q0 336 234.5 570.5t572.5 234.5t572.5 -234.5t234.5 -570.5t-234.5 -570.5t-572.5 -234.5t-572.5 234.5t-234.5 570.5zM143 772q0 -283 199 -478.5t477.5 -195.5t477 195.5t198.5 478.5t-198.5 478.5t-477 195.5t-477.5 -195.5t-199 -478.5zM508 313v906h381 q311 0 311 -240q0 -123 -69.5 -183.5t-172.5 -64.5l230 -418h-150l-231 418h-168v-418h-131zM639 862h139q14 0 54 -1t58.5 0t52.5 3t51.5 8.5t38 17.5t28.5 30.5t8 44.5q0 41 -15.5 67.5t-47 37.5t-62.5 14t-80 3h-225v-225z" />
<glyph unicode="&#xaf;" horiz-adv-x="1024" d="M143 1282v139h740v-139h-740z" />
<glyph unicode="&#xb0;" horiz-adv-x="819" d="M102 1270q-2 127 89.5 217t218.5 90t217 -90t90 -217t-90 -217t-217 -90t-217.5 90t-90.5 217zM205 1270q0 -88 58.5 -146.5t146.5 -58.5q86 0 145 58.5t59 146.5q0 86 -59 145.5t-147 59.5q-86 0 -145.5 -59.5t-57.5 -145.5z" />
<glyph unicode="&#xb1;" d="M68 0v176h1048v-176h-1048zM68 621v176h436v354h176v-354h436v-176h-436v-355h-176v355h-436z" />
<glyph unicode="&#xb2;" horiz-adv-x="708" d="M31 618l440 498q78 90 78 166q0 68 -59.5 116t-127.5 48q-76 0 -126 -43t-54 -113h-137q14 125 98 200t219 75q129 0 223.5 -80t94.5 -199q0 -113 -68 -190l-317 -359h385v-119h-649z" />
<glyph unicode="&#xb3;" horiz-adv-x="708" d="M39 860h131q20 -131 184 -131q76 0 131.5 45t55.5 119q0 78 -59.5 125t-147.5 43v119q88 0 140 34.5t52 102t-51 104.5t-119 37q-66 0 -109.5 -28.5t-43.5 -86.5h-137q18 113 94 173.5t200.5 60.5t210.5 -68.5t86 -181.5q0 -137 -135 -209q150 -66 150 -229 q0 -127 -94.5 -203t-233.5 -76q-121 0 -210 68.5t-95 181.5z" />
<glyph unicode="&#xb4;" horiz-adv-x="737" d="M156 1163l256 340l170 -90l-336 -305z" />
<glyph unicode="&#xb5;" horiz-adv-x="1048" d="M119 -549v1507h184v-530q0 -133 48 -211t173 -78t173 78t48 211v530h185v-550q0 -205 -100.5 -323t-305.5 -118q-115 0 -221 90v-606h-184z" />
<glyph unicode="&#xb6;" d="M84 1018q-14 195 116 360.5t324 165.5h578v-172h-125v-1685h-172v1685h-127v-1685h-172v893q-176 0 -292 116.5t-130 321.5z" />
<glyph unicode="&#xb7;" horiz-adv-x="591" d="M178 524q0 47 35 83t84 36t84 -36t35 -83q0 -49 -35 -83.5t-84 -34.5t-84 34.5t-35 83.5z" />
<glyph unicode="&#xb8;" horiz-adv-x="675" d="M176 -315l178 280l146 -59l-215 -277z" />
<glyph unicode="&#xb9;" horiz-adv-x="708" d="M133 1425l70 119h237v-926h-131v807h-176z" />
<glyph unicode="&#xba;" horiz-adv-x="663" d="M0 754v98h666v-98h-666zM0 1270q0 131 96.5 219t235.5 88t236.5 -88t97.5 -219q0 -129 -97.5 -217t-236.5 -88t-235.5 88t-96.5 217zM121 1270q0 -80 61.5 -139.5t149.5 -59.5t150.5 59.5t62.5 139.5q0 84 -62.5 142t-150.5 58t-149.5 -58t-61.5 -142z" />
<glyph unicode="&#xbb;" horiz-adv-x="1071" d="M129 264l305 391l-305 408l115 84l372 -492l-372 -475zM522 264l305 391l-305 408l115 84l373 -492l-373 -475z" />
<glyph unicode="&#xbc;" horiz-adv-x="1775" d="M82 1425l70 119h237v-926h-131v807h-176zM391 25l901 1552l105 -53l-901 -1557zM965 135l628 834v-715h101v-119h-101v-135h-131v135h-497zM1204 254h258v336h-6z" />
<glyph unicode="&#xbd;" horiz-adv-x="1775" d="M82 1425l70 119h237v-926h-131v807h-176zM285 25l901 1552l104 -53l-901 -1557zM1044 0l441 498q78 90 78 166q0 68 -59.5 115.5t-127.5 47.5q-76 0 -126 -43t-54 -112h-137q14 125 98 199.5t219 74.5q129 0 223.5 -80t94.5 -198q0 -113 -68 -191l-317 -358h385v-119 h-650z" />
<glyph unicode="&#xbe;" horiz-adv-x="1775" d="M82 860h131q20 -131 184 -131q76 0 131.5 45t55.5 119q0 78 -59.5 125t-147.5 43v119q88 0 140 34.5t52 102t-51 104.5t-119 37q-66 0 -109.5 -28.5t-43.5 -86.5h-137q18 113 94 173.5t200.5 60.5t210.5 -68.5t86 -181.5q0 -137 -135 -209q150 -66 150 -229 q0 -127 -94.5 -203t-233.5 -76q-121 0 -210 68.5t-95 181.5zM506 25l901 1552l104 -53l-901 -1557zM965 135l628 834v-715h101v-119h-101v-135h-131v135h-497zM1204 254h258v336h-6z" />
<glyph unicode="&#xbf;" horiz-adv-x="927" d="M86 -186q0 160 111 254q63 55 254 114q150 45 149 150q0 61 -41 104t-102 43q-66 0 -107 -46t-39 -111h-186q-6 131 96.5 230t235.5 99q137 0 233 -95t96 -232q0 -131 -67.5 -193.5t-190.5 -107.5q-10 -4 -40.5 -15.5t-43 -15.5t-39 -15.5t-37 -18.5t-31 -20.5 t-28.5 -25.5t-18 -28.5t-14.5 -35t-4.5 -41.5q0 -84 53.5 -133t135.5 -49q72 0 124 52.5t52 123.5q0 20 -12 66h192l4 -68q8 -145 -104.5 -246.5t-261.5 -101.5q-156 0 -262.5 104.5t-106.5 258.5zM338 922q0 47 35 82.5t84 35.5t83.5 -35.5t34.5 -82.5q0 -49 -34.5 -84 t-83.5 -35t-84 35t-35 84z" />
<glyph unicode="&#xc0;" horiz-adv-x="1439" d="M-16 0l737 1610l737 -1610h-207l-176 387h-708l-177 -387h-206zM446 563h549l-274 625zM508 1999l170 90l256 -340l-90 -55z" />
<glyph unicode="&#xc1;" horiz-adv-x="1439" d="M-16 0l737 1610l737 -1610h-207l-176 387h-708l-177 -387h-206zM446 563h549l-274 625zM508 1749l256 340l170 -90l-336 -305z" />
<glyph unicode="&#xc2;" horiz-adv-x="1439" d="M-16 0l737 1610l737 -1610h-207l-176 387h-708l-177 -387h-206zM446 563h549l-274 625zM394 1792l325 297l330 -297l-121 -94l-209 197l-207 -197z" />
<glyph unicode="&#xc3;" horiz-adv-x="1439" d="M-16 0l737 1610l737 -1610h-207l-176 387h-708l-177 -387h-206zM446 563h549l-274 625zM330 1841l6 11q35 49 59.5 77.5t67.5 53t94 24.5q84 0 183 -53q102 -55 147 -55q72 0 131 98l96 -80q-82 -168 -241 -168q-59 0 -170 54q-111 51 -160 51q-35 0 -66.5 -29t-50.5 -65 z" />
<glyph unicode="&#xc4;" horiz-adv-x="1439" d="M-16 0l737 1610l737 -1610h-207l-176 387h-708l-177 -387h-206zM446 563h549l-274 625zM381 1884q0 51 37 87t88 36t87 -35.5t36 -87t-36 -88t-87 -36.5q-53 0 -89 35.5t-36 88.5zM813 1884q0 51 37 87t88.5 36t87 -35.5t35.5 -87t-35.5 -88t-87 -36.5t-88.5 35.5 t-37 88.5z" />
<glyph unicode="&#xc5;" horiz-adv-x="1439" d="M-16 0l737 1610l737 -1610h-207l-176 387h-708l-177 -387h-206zM446 563h549l-274 625zM536 1903q0 78 54.5 132t130.5 54q78 0 132 -54t54 -132t-54.5 -131t-132 -53t-131 54t-53.5 130zM628 1903q0 -39 28 -65.5t65 -26.5q39 0 66.5 26.5t27.5 65.5t-27.5 66.5 t-66.5 27.5q-37 0 -65 -27.5t-28 -66.5z" />
<glyph unicode="&#xc6;" horiz-adv-x="2041" d="M0 0l741 1544h676l78 -176h-633l187 -432h616l82 -176h-619l248 -584h637l78 -176h-831l-170 387h-703l-176 -387h-211zM469 563h549l-266 598z" />
<glyph unicode="&#xc7;" horiz-adv-x="1353" d="M61 764q0 342 240 577.5t582 235.5q219 0 389 -104v-224q-170 152 -408 152q-256 0 -433 -185.5t-177 -445.5q0 -256 175 -441.5t431 -185.5q233 0 412 160v-227q-184 -109 -406 -109q-332 0 -568.5 231.5t-236.5 565.5zM516 -315l178 280l146 -59l-215 -277z" />
<glyph unicode="&#xc8;" horiz-adv-x="1067" d="M147 0v1544h830v-176h-637v-432h618v-176h-618v-584h637v-176h-830zM322 1999l170 90l256 -340l-90 -55z" />
<glyph unicode="&#xc9;" horiz-adv-x="1067" d="M147 0v1544h830v-176h-637v-432h618v-176h-618v-584h637v-176h-830zM346 1749l256 340l170 -90l-336 -305z" />
<glyph unicode="&#xca;" horiz-adv-x="1067" d="M147 0v1544h830v-176h-637v-432h618v-176h-618v-584h637v-176h-830zM207 1792l325 297l330 -297l-121 -94l-209 197l-207 -197z" />
<glyph unicode="&#xcb;" horiz-adv-x="1067" d="M147 0v1544h830v-176h-637v-432h618v-176h-618v-584h637v-176h-830zM219 1884q0 51 37 87t88 36t87 -35.5t36 -87t-36 -88t-87 -36.5q-53 0 -89 35.5t-36 88.5zM651 1884q0 51 37 87t88.5 36t87 -35.5t35.5 -87t-35.5 -88t-87 -36.5t-88.5 35.5t-37 88.5z" />
<glyph unicode="&#xcc;" horiz-adv-x="475" d="M141 0v1544h193v-1544h-193zM25 1999l170 90l256 -340l-90 -55z" />
<glyph unicode="&#xcd;" horiz-adv-x="475" d="M141 0v1544h193v-1544h-193zM25 1749l256 340l170 -90l-336 -305z" />
<glyph unicode="&#xce;" horiz-adv-x="475" d="M141 0v1544h193v-1544h-193zM-90 1792l325 297l330 -297l-121 -94l-209 197l-207 -197z" />
<glyph unicode="&#xcf;" horiz-adv-x="475" d="M141 0v1544h193v-1544h-193zM-103 1884q0 51 37 87t88 36t87 -35.5t36 -87t-36 -88t-87 -36.5q-53 0 -89 35.5t-36 88.5zM329 1884q0 51 37 87t88.5 36t87 -35.5t35.5 -87t-35.5 -88t-87 -36.5t-88.5 35.5t-37 88.5z" />
<glyph unicode="&#xd0;" horiz-adv-x="1361" d="M0 741v181h131v622h320q375 0 620.5 -197.5t245.5 -566.5q0 -379 -244 -579.5t-629 -200.5h-313v741h-131zM324 176h67q156 0 283 31t230.5 98.5t161.5 186t58 280.5q0 164 -58 283t-162.5 185.5t-230.5 97t-282 30.5h-67v-446h274v-181h-274v-565z" />
<glyph unicode="&#xd1;" horiz-adv-x="1607" d="M129 0v1618l1159 -1215v1141h193v-1607l-1159 1214v-1151h-193zM414 1841l6 11q35 49 59.5 77.5t67.5 53t94 24.5q84 0 183 -53q102 -55 147 -55q72 0 131 98l96 -80q-82 -168 -241 -168q-59 0 -170 54q-111 51 -160 51q-35 0 -66.5 -29t-50.5 -65z" />
<glyph unicode="&#xd2;" horiz-adv-x="1695" d="M39 772q0 332 238.5 568.5t570.5 236.5t570.5 -236.5t238.5 -568.5q0 -342 -235.5 -573.5t-573.5 -231.5t-573.5 231.5t-235.5 573.5zM231 772q0 -262 182.5 -443.5t434.5 -181.5t434 181.5t182 443.5q0 260 -175 442.5t-441 182.5t-441.5 -182.5t-175.5 -442.5z M635 1999l170 90l256 -340l-90 -55z" />
<glyph unicode="&#xd3;" horiz-adv-x="1695" d="M39 772q0 332 238.5 568.5t570.5 236.5t570.5 -236.5t238.5 -568.5q0 -342 -235.5 -573.5t-573.5 -231.5t-573.5 231.5t-235.5 573.5zM231 772q0 -262 182.5 -443.5t434.5 -181.5t434 181.5t182 443.5q0 260 -175 442.5t-441 182.5t-441.5 -182.5t-175.5 -442.5z M635 1749l256 340l170 -90l-336 -305z" />
<glyph unicode="&#xd4;" horiz-adv-x="1695" d="M39 772q0 332 238.5 568.5t570.5 236.5t570.5 -236.5t238.5 -568.5q0 -342 -235.5 -573.5t-573.5 -231.5t-573.5 231.5t-235.5 573.5zM231 772q0 -262 182.5 -443.5t434.5 -181.5t434 181.5t182 443.5q0 260 -175 442.5t-441 182.5t-441.5 -182.5t-175.5 -442.5z M521 1792l325 297l330 -297l-121 -94l-209 197l-207 -197z" />
<glyph unicode="&#xd5;" horiz-adv-x="1695" d="M39 772q0 332 238.5 568.5t570.5 236.5t570.5 -236.5t238.5 -568.5q0 -342 -235.5 -573.5t-573.5 -231.5t-573.5 231.5t-235.5 573.5zM231 772q0 -262 182.5 -443.5t434.5 -181.5t434 181.5t182 443.5q0 260 -175 442.5t-441 182.5t-441.5 -182.5t-175.5 -442.5z M457 1841l6 11q35 49 59.5 77.5t67.5 53t94 24.5q84 0 183 -53q102 -55 147 -55q72 0 131 98l96 -80q-82 -168 -241 -168q-59 0 -170 54q-111 51 -160 51q-35 0 -66.5 -29t-50.5 -65z" />
<glyph unicode="&#xd6;" horiz-adv-x="1695" d="M39 772q0 332 238.5 568.5t570.5 236.5t570.5 -236.5t238.5 -568.5q0 -342 -235.5 -573.5t-573.5 -231.5t-573.5 231.5t-235.5 573.5zM231 772q0 -262 182.5 -443.5t434.5 -181.5t434 181.5t182 443.5q0 260 -175 442.5t-441 182.5t-441.5 -182.5t-175.5 -442.5z M508 1884q0 51 37 87t88 36t87 -35.5t36 -87t-36 -88t-87 -36.5q-53 0 -89 35.5t-36 88.5zM940 1884q0 51 37 87t88.5 36t87 -35.5t35.5 -87t-35.5 -88t-87 -36.5t-88.5 35.5t-37 88.5z" />
<glyph unicode="&#xd7;" d="M68 125l399 399l-399 400l122 125l402 -400l401 400l123 -125l-399 -400l399 -399l-123 -125l-401 399l-402 -399z" />
<glyph unicode="&#xd8;" horiz-adv-x="1695" d="M27 43l202 203q-190 211 -190 526q0 332 238.5 568.5t570.5 236.5q145 0 287.5 -53.5t246.5 -151.5l205 205l82 -84l-205 -205q193 -240 193 -516q0 -342 -235.5 -573.5t-573.5 -231.5q-285 0 -533 195l-204 -205zM231 772q0 -227 134 -401l884 876q-160 154 -401 150 q-266 0 -441.5 -182.5t-175.5 -442.5zM457 291q150 -143 391 -144q252 0 434 181.5t182 443.5q0 215 -135 387z" />
<glyph unicode="&#xd9;" horiz-adv-x="1370" d="M121 567v977h192v-911q0 -485 373 -485.5t373 485.5v911h192v-977q0 -262 -152.5 -431t-412.5 -169t-412.5 169t-152.5 431zM449 1999l170 90l256 -340l-90 -55z" />
<glyph unicode="&#xda;" horiz-adv-x="1370" d="M121 567v977h192v-911q0 -485 373 -485.5t373 485.5v911h192v-977q0 -262 -152.5 -431t-412.5 -169t-412.5 169t-152.5 431zM473 1749l256 340l170 -90l-336 -305z" />
<glyph unicode="&#xdb;" horiz-adv-x="1370" d="M121 567v977h192v-911q0 -485 373 -485.5t373 485.5v911h192v-977q0 -262 -152.5 -431t-412.5 -169t-412.5 169t-152.5 431zM359 1792l325 297l330 -297l-121 -94l-209 197l-207 -197z" />
<glyph unicode="&#xdc;" horiz-adv-x="1370" d="M121 567v977h192v-911q0 -485 373 -485.5t373 485.5v911h192v-977q0 -262 -152.5 -431t-412.5 -169t-412.5 169t-152.5 431zM346 1884q0 51 37 87t88 36t87 -35.5t36 -87t-36 -88t-87 -36.5q-53 0 -89 35.5t-36 88.5zM778 1884q0 51 37 87t88.5 36t87 -35.5t35.5 -87 t-35.5 -88t-87 -36.5t-88.5 35.5t-37 88.5z" />
<glyph unicode="&#xdd;" horiz-adv-x="1173" d="M-12 1544h221l379 -659l379 659h221l-504 -872v-672h-192v672zM457 1749l256 340l170 -90l-336 -305z" />
<glyph unicode="&#xde;" horiz-adv-x="1013" d="M147 0v1544h193v-287h29q342 0 482 -111.5t140 -334.5q0 -229 -150.5 -340t-389.5 -111h-111v-360h-193zM340 532h61q84 0 148.5 10.5t128 38t98.5 87t35 147.5q0 86 -37 143.5t-104.5 83t-131 34.5t-147.5 9h-51v-553z" />
<glyph unicode="&#xdf;" horiz-adv-x="1187" d="M57 791v172h82v303q0 537 455 536q190 0 317 -125t127 -317q0 -227 -196 -342q147 -47 233 -187.5t86 -302.5q0 -240 -173 -405.5t-410 -155.5v172q160 0 279.5 115t119.5 274q0 172 -111.5 269.5t-287.5 109.5v180q117 -2 196.5 81t79.5 202q0 113 -78 186.5t-188 73.5 q-55 0 -99.5 -18.5t-72 -42t-46 -70.5t-27.5 -78.5t-14 -95t-5 -89.5v-91v-1145h-185v791h-82z" />
<glyph unicode="&#xe0;" horiz-adv-x="1138" d="M53 485q0 205 125 353.5t328 148.5q207 0 332 -188h4v159h184v-958h-184v150h-4q-123 -182 -326 -183q-211 0 -335 150.5t-124 367.5zM238 479q0 -143 81.5 -245.5t221.5 -102.5q145 0 228 100.5t83 247.5q0 145 -84 244.5t-227 99.5q-137 0 -220 -101.5t-83 -242.5z M357 1413l170 90l256 -340l-90 -55z" />
<glyph unicode="&#xe1;" horiz-adv-x="1138" d="M53 485q0 205 125 353.5t328 148.5q207 0 332 -188h4v159h184v-958h-184v150h-4q-123 -182 -326 -183q-211 0 -335 150.5t-124 367.5zM238 479q0 -143 81.5 -245.5t221.5 -102.5q145 0 228 100.5t83 247.5q0 145 -84 244.5t-227 99.5q-137 0 -220 -101.5t-83 -242.5z M357 1163l256 340l170 -90l-336 -305z" />
<glyph unicode="&#xe2;" horiz-adv-x="1138" d="M53 485q0 205 125 353.5t328 148.5q207 0 332 -188h4v159h184v-958h-184v150h-4q-123 -182 -326 -183q-211 0 -335 150.5t-124 367.5zM238 479q0 -143 81.5 -245.5t221.5 -102.5q145 0 228 100.5t83 247.5q0 145 -84 244.5t-227 99.5q-137 0 -220 -101.5t-83 -242.5z M242 1206l325 297l330 -297l-121 -94l-209 197l-207 -197z" />
<glyph unicode="&#xe3;" horiz-adv-x="1138" d="M53 485q0 205 125 353.5t328 148.5q207 0 332 -188h4v159h184v-958h-184v150h-4q-123 -182 -326 -183q-211 0 -335 150.5t-124 367.5zM238 479q0 -143 81.5 -245.5t221.5 -102.5q145 0 228 100.5t83 247.5q0 145 -84 244.5t-227 99.5q-137 0 -220 -101.5t-83 -242.5z M178 1255l6 11q35 49 59.5 77.5t67.5 53t94 24.5q84 0 183 -53q102 -55 147 -55q72 0 131 98l96 -80q-82 -168 -241 -168q-59 0 -170 54q-111 51 -160 51q-35 0 -66.5 -29t-50.5 -65z" />
<glyph unicode="&#xe4;" horiz-adv-x="1138" d="M53 485q0 205 125 353.5t328 148.5q207 0 332 -188h4v159h184v-958h-184v150h-4q-123 -182 -326 -183q-211 0 -335 150.5t-124 367.5zM238 479q0 -143 81.5 -245.5t221.5 -102.5q145 0 228 100.5t83 247.5q0 145 -84 244.5t-227 99.5q-137 0 -220 -101.5t-83 -242.5z M229 1298q0 51 37 87t88 36t87 -35.5t36 -87t-36 -88t-87 -36.5q-53 0 -89 35.5t-36 88.5zM661 1298q0 51 37 87t88.5 36t87 -35.5t35.5 -87t-35.5 -88t-87 -36.5t-88.5 35.5t-37 88.5z" />
<glyph unicode="&#xe5;" horiz-adv-x="1138" d="M53 485q0 205 125 353.5t328 148.5q207 0 332 -188h4v159h184v-958h-184v150h-4q-123 -182 -326 -183q-211 0 -335 150.5t-124 367.5zM238 479q0 -143 81.5 -245.5t221.5 -102.5q145 0 228 100.5t83 247.5q0 145 -84 244.5t-227 99.5q-137 0 -220 -101.5t-83 -242.5z M385 1317q0 78 54.5 132t130.5 54q78 0 132 -54t54 -132t-54.5 -131t-132 -53t-131 54t-53.5 130zM477 1317q0 -39 28 -65.5t65 -26.5q39 0 66.5 26.5t27.5 65.5t-27.5 66.5t-66.5 27.5q-37 0 -65 -27.5t-28 -66.5z" />
<glyph unicode="&#xe6;" horiz-adv-x="1652" d="M53 281q0 150 104.5 235.5t258.5 85.5q184 0 291 -88v66q0 248 -252 247q-166 0 -262 -30v164q135 27 288 26q98 0 191.5 -40t136.5 -118q127 158 365 158q219 0 333.5 -142.5t114.5 -367.5v-28h-731q2 -129 82 -223.5t207 -94.5q100 0 164.5 46t121.5 140l156 -88 q-68 -123 -185.5 -192.5t-258.5 -69.5q-215 0 -369 178q-57 -86 -156.5 -132t-210.5 -46q-156 0 -272.5 81t-116.5 233zM225 284.5q0 -77.5 74 -115.5t160 -38q88 0 162.5 40t74.5 120q0 78 -77.5 116.5t-165.5 38.5q-84 0 -156 -42t-72 -119.5zM905 588h537 q-16 111 -86 175t-178 64q-106 0 -181.5 -67.5t-91.5 -171.5z" />
<glyph unicode="&#xe7;" horiz-adv-x="903" d="M53 471q0 221 150.5 368.5t374.5 147.5q145 0 253 -63v-238q-113 129 -274 129q-133 0 -226 -100.5t-93 -235.5q0 -147 93 -243.5t238 -96.5q150 0 262 127v-235q-119 -63 -264 -64q-213 0 -363.5 145.5t-150.5 358.5zM291 -315l178 280l146 -59l-215 -277z" />
<glyph unicode="&#xe8;" horiz-adv-x="999" d="M53 471q0 229 121 372.5t346 143.5q219 0 334 -142.5t115 -367.5v-28h-731q2 -129 81.5 -223.5t206.5 -94.5q100 0 165 46t122 140l156 -88q-68 -123 -185.5 -192.5t-259.5 -69.5q-215 0 -343 143.5t-128 360.5zM248 588h536q-16 111 -85.5 175t-178.5 64 q-106 0 -181 -67.5t-91 -171.5zM287 1413l170 90l256 -340l-90 -55z" />
<glyph unicode="&#xe9;" horiz-adv-x="999" d="M53 471q0 229 121 372.5t346 143.5q219 0 334 -142.5t115 -367.5v-28h-731q2 -129 81.5 -223.5t206.5 -94.5q100 0 165 46t122 140l156 -88q-68 -123 -185.5 -192.5t-259.5 -69.5q-215 0 -343 143.5t-128 360.5zM248 588h536q-16 111 -85.5 175t-178.5 64 q-106 0 -181 -67.5t-91 -171.5zM287 1163l256 340l170 -90l-336 -305z" />
<glyph unicode="&#xea;" horiz-adv-x="999" d="M53 471q0 229 121 372.5t346 143.5q219 0 334 -142.5t115 -367.5v-28h-731q2 -129 81.5 -223.5t206.5 -94.5q100 0 165 46t122 140l156 -88q-68 -123 -185.5 -192.5t-259.5 -69.5q-215 0 -343 143.5t-128 360.5zM248 588h536q-16 111 -85.5 175t-178.5 64 q-106 0 -181 -67.5t-91 -171.5zM172 1206l325 297l330 -297l-121 -94l-209 197l-207 -197z" />
<glyph unicode="&#xeb;" horiz-adv-x="999" d="M53 471q0 229 121 372.5t346 143.5q219 0 334 -142.5t115 -367.5v-28h-731q2 -129 81.5 -223.5t206.5 -94.5q100 0 165 46t122 140l156 -88q-68 -123 -185.5 -192.5t-259.5 -69.5q-215 0 -343 143.5t-128 360.5zM248 588h536q-16 111 -85.5 175t-178.5 64 q-106 0 -181 -67.5t-91 -171.5zM159 1298q0 51 37 87t88 36t87 -35.5t36 -87t-36 -88t-87 -36.5q-53 0 -89 35.5t-36 88.5zM591 1298q0 51 37 87t88.5 36t87 -35.5t35.5 -87t-35.5 -88t-87 -36.5t-88.5 35.5t-37 88.5z" />
<glyph unicode="&#xec;" horiz-adv-x="520" d="M168 0v958h184v-958h-184zM47 1413l170 90l256 -340l-90 -55z" />
<glyph unicode="&#xed;" horiz-adv-x="520" d="M168 0v958h184v-958h-184zM47 1163l256 340l170 -90l-336 -305z" />
<glyph unicode="&#xee;" horiz-adv-x="520" d="M168 0v958h184v-958h-184zM-67 1206l325 297l330 -297l-121 -94l-209 197l-207 -197z" />
<glyph unicode="&#xef;" horiz-adv-x="520" d="M168 0v958h184v-958h-184zM-80 1298q0 51 37 87t88 36t87 -35.5t36 -87t-36 -88t-87 -36.5q-53 0 -89 35.5t-36 88.5zM352 1298q0 51 37 87t88.5 36t87 -35.5t35.5 -87t-35.5 -88t-87 -36.5t-88.5 35.5t-37 88.5z" />
<glyph unicode="&#xf0;" horiz-adv-x="1105" d="M-23 1274l324 186l-207 228l160 90l207 -228l299 170l100 -110l-297 -172q154 -180 338 -480q164 -266 164 -481q0 -227 -146.5 -368.5t-365.5 -141.5q-215 0 -363.5 147.5t-148.5 362.5t148.5 362.5t363.5 147.5q70 0 135 -29l4 5q-59 96 -150 219t-139 166l-323 -187z M225 477q0 -135 96.5 -234.5t231.5 -99.5t231.5 99.5t96.5 234.5q0 137 -96.5 235.5t-231.5 98.5t-231.5 -98.5t-96.5 -235.5z" />
<glyph unicode="&#xf1;" horiz-adv-x="1071" d="M127 0v958h184v-129h4q41 76 120 117t169 41q188 0 264 -110.5t76 -305.5v-571h-184v549q0 141 -40 207.5t-171 66.5q-57 0 -100 -14t-68 -47t-40 -62.5t-21.5 -84t-7.5 -85t-1 -90.5v-440h-184zM145 1255l6 11q35 49 59.5 77.5t67.5 53t94 24.5q84 0 183 -53 q102 -55 147 -55q72 0 131 98l96 -80q-82 -168 -241 -168q-59 0 -170 54q-111 51 -160 51q-35 0 -66.5 -29t-50.5 -65z" />
<glyph unicode="&#xf2;" horiz-adv-x="1105" d="M41 477q0 215 148.5 362.5t363.5 147.5t363.5 -147.5t148.5 -362.5t-148.5 -362.5t-363.5 -147.5t-363.5 147.5t-148.5 362.5zM225 477q0 -135 96.5 -234.5t231.5 -99.5t231.5 99.5t96.5 234.5q0 137 -96.5 235.5t-231.5 98.5t-231.5 -98.5t-96.5 -235.5zM340 1413 l170 90l256 -340l-90 -55z" />
<glyph unicode="&#xf3;" horiz-adv-x="1105" d="M41 477q0 215 148.5 362.5t363.5 147.5t363.5 -147.5t148.5 -362.5t-148.5 -362.5t-363.5 -147.5t-363.5 147.5t-148.5 362.5zM225 477q0 -135 96.5 -234.5t231.5 -99.5t231.5 99.5t96.5 234.5q0 137 -96.5 235.5t-231.5 98.5t-231.5 -98.5t-96.5 -235.5zM340 1163 l256 340l170 -90l-336 -305z" />
<glyph unicode="&#xf4;" horiz-adv-x="1105" d="M41 477q0 215 148.5 362.5t363.5 147.5t363.5 -147.5t148.5 -362.5t-148.5 -362.5t-363.5 -147.5t-363.5 147.5t-148.5 362.5zM225 477q0 -135 96.5 -234.5t231.5 -99.5t231.5 99.5t96.5 234.5q0 137 -96.5 235.5t-231.5 98.5t-231.5 -98.5t-96.5 -235.5zM226 1206 l325 297l330 -297l-121 -94l-209 197l-207 -197z" />
<glyph unicode="&#xf5;" horiz-adv-x="1105" d="M41 477q0 215 148.5 362.5t363.5 147.5t363.5 -147.5t148.5 -362.5t-148.5 -362.5t-363.5 -147.5t-363.5 147.5t-148.5 362.5zM225 477q0 -135 96.5 -234.5t231.5 -99.5t231.5 99.5t96.5 234.5q0 137 -96.5 235.5t-231.5 98.5t-231.5 -98.5t-96.5 -235.5zM162 1255l6 11 q35 49 59.5 77.5t67.5 53t94 24.5q84 0 183 -53q102 -55 147 -55q72 0 131 98l96 -80q-82 -168 -241 -168q-59 0 -170 54q-111 51 -160 51q-35 0 -66.5 -29t-50.5 -65z" />
<glyph unicode="&#xf6;" horiz-adv-x="1105" d="M41 477q0 215 148.5 362.5t363.5 147.5t363.5 -147.5t148.5 -362.5t-148.5 -362.5t-363.5 -147.5t-363.5 147.5t-148.5 362.5zM225 477q0 -135 96.5 -234.5t231.5 -99.5t231.5 99.5t96.5 234.5q0 137 -96.5 235.5t-231.5 98.5t-231.5 -98.5t-96.5 -235.5zM213 1298 q0 51 37 87t88 36t87 -35.5t36 -87t-36 -88t-87 -36.5q-53 0 -89 35.5t-36 88.5zM645 1298q0 51 37 87t88.5 36t87 -35.5t35.5 -87t-35.5 -88t-87 -36.5t-88.5 35.5t-37 88.5z" />
<glyph unicode="&#xf7;" d="M68 436v176h1048v-176h-1048zM465 125q0 53 37 91t90 38t90 -38t37 -91q0 -51 -37 -88t-90 -37t-90 37t-37 88zM465 920q0 53 37 91t90 38t90 -38t37 -91q0 -51 -37 -88t-90 -37t-90 37t-37 88z" />
<glyph unicode="&#xf8;" horiz-adv-x="1105" d="M31 18l125 127q-115 160 -115 332q0 215 148.5 362.5t363.5 147.5q188 0 326 -119l135 138l63 -66l-133 -131q121 -162 121 -332q0 -215 -148.5 -362.5t-363.5 -147.5q-190 0 -334 119l-125 -131zM225 477q0 -106 66 -203l457 469q-86 68 -195 68q-135 0 -231.5 -98.5 t-96.5 -235.5zM354 209q80 -66 199 -66q135 0 231.5 99.5t96.5 234.5q0 117 -72 199z" />
<glyph unicode="&#xf9;" horiz-adv-x="1048" d="M119 408v550h184v-530q0 -133 48 -211t173 -78t173 78t48 211v530h185v-550q0 -205 -100.5 -323t-305.5 -118t-305 118t-100 323zM312 1413l170 90l256 -340l-90 -55z" />
<glyph unicode="&#xfa;" horiz-adv-x="1048" d="M119 408v550h184v-530q0 -133 48 -211t173 -78t173 78t48 211v530h185v-550q0 -205 -100.5 -323t-305.5 -118t-305 118t-100 323zM312 1163l256 340l170 -90l-336 -305z" />
<glyph unicode="&#xfb;" horiz-adv-x="1048" d="M119 408v550h184v-530q0 -133 48 -211t173 -78t173 78t48 211v530h185v-550q0 -205 -100.5 -323t-305.5 -118t-305 118t-100 323zM197 1206l325 297l330 -297l-121 -94l-209 197l-207 -197z" />
<glyph unicode="&#xfc;" horiz-adv-x="1048" d="M119 408v550h184v-530q0 -133 48 -211t173 -78t173 78t48 211v530h185v-550q0 -205 -100.5 -323t-305.5 -118t-305 118t-100 323zM184 1298q0 51 37 87t88 36t87 -35.5t36 -87t-36 -88t-87 -36.5q-53 0 -89 35.5t-36 88.5zM616 1298q0 51 37 87t88.5 36t87 -35.5 t35.5 -87t-35.5 -88t-87 -36.5t-88.5 35.5t-37 88.5z" />
<glyph unicode="&#xfd;" horiz-adv-x="991" d="M-27 958h215l324 -608l301 608h207l-776 -1507h-209l377 713zM283 1163l256 340l170 -90l-336 -305z" />
<glyph unicode="&#xfe;" horiz-adv-x="1138" d="M113 -549v2327h184v-979h4q125 188 334 188q201 0 325.5 -148.5t124.5 -353.5q0 -217 -122.5 -367.5t-335.5 -150.5q-98 0 -183.5 49.5t-142.5 133.5h-4v-699h-184zM287 479q0 -143 82 -245.5t221 -102.5q145 0 228 100.5t83 247.5q0 145 -84 244.5t-227 99.5 q-137 0 -220 -101.5t-83 -242.5z" />
<glyph unicode="&#xff;" horiz-adv-x="991" d="M-27 958h215l324 -608l301 608h207l-776 -1507h-209l377 713zM155 1298q0 51 37 87t88 36t87 -35.5t36 -87t-36 -88t-87 -36.5q-53 0 -89 35.5t-36 88.5zM587 1298q0 51 37 87t88.5 36t87 -35.5t35.5 -87t-35.5 -88t-87 -36.5t-88.5 35.5t-37 88.5z" />
<glyph unicode="&#x131;" horiz-adv-x="520" d="M168 0v958h184v-958h-184z" />
<glyph unicode="&#x152;" horiz-adv-x="2340" d="M39 772q0 332 238.5 568.5t570.5 236.5q184 -6 352 -84t266 -219h4v270h809v-176h-634v-432h616v-176h-616v-584h634v-176h-809v258h-4q-104 -139 -267 -216t-351 -75q-338 0 -573.5 231.5t-235.5 573.5zM231 772q0 -262 182.5 -443.5t434.5 -181.5t434 181.5t182 443.5 q0 260 -175 442.5t-441 182.5t-441.5 -182.5t-175.5 -442.5z" />
<glyph unicode="&#x153;" horiz-adv-x="1837" d="M41 477q0 215 148.5 362.5t363.5 147.5q119 -4 231.5 -61.5t178.5 -153.5q131 207 395 215q219 0 333.5 -142.5t114.5 -367.5v-28h-731q2 -129 82 -223.5t207 -94.5q100 0 164.5 46t122.5 140l155 -88q-68 -123 -185.5 -192.5t-258.5 -69.5q-123 -2 -231.5 54.5 t-167.5 156.5q-68 -100 -178.5 -156.5t-231.5 -54.5q-215 0 -363.5 147.5t-148.5 362.5zM225 477q0 -135 96.5 -234.5t231.5 -99.5t231.5 99.5t96.5 234.5q0 137 -96.5 235.5t-231.5 98.5t-231.5 -98.5t-96.5 -235.5zM1083 588h537q-16 111 -86 175t-178 64 q-106 0 -181.5 -67.5t-91.5 -171.5z" />
<glyph unicode="&#x178;" horiz-adv-x="1173" d="M-12 1544h221l379 -659l379 659h221l-504 -872v-672h-192v672zM247 1884q0 51 37 87t88 36t87 -35.5t36 -87t-36 -88t-87 -36.5q-53 0 -89 35.5t-36 88.5zM679 1884q0 51 37 87t88.5 36t87 -35.5t35.5 -87t-35.5 -88t-87 -36.5t-88.5 35.5t-37 88.5z" />
<glyph unicode="&#x2c6;" horiz-adv-x="962" d="M154 1206l325 297l330 -297l-121 -94l-209 197l-207 -197z" />
<glyph unicode="&#x2da;" horiz-adv-x="737" d="M184 1317q0 78 54.5 132t130.5 54q78 0 132 -54t54 -132t-54.5 -131t-132 -53t-131 54t-53.5 130zM276 1317q0 -39 28 -65.5t65 -26.5q39 0 66.5 26.5t27.5 65.5t-27.5 66.5t-66.5 27.5q-37 0 -65 -27.5t-28 -66.5z" />
<glyph unicode="&#x2dc;" horiz-adv-x="1044" d="M131 1255l6 11q35 49 59.5 77.5t67.5 53t94 24.5q84 0 183 -53q102 -55 147 -55q72 0 131 98l96 -80q-82 -168 -241 -168q-59 0 -170 54q-111 51 -160 51q-35 0 -66.5 -29t-50.5 -65z" />
<glyph unicode="&#x3bc;" horiz-adv-x="1048" d="M119 -549v1507h184v-530q0 -133 48 -211t173 -78t173 78t48 211v530h185v-550q0 -205 -100.5 -323t-305.5 -118q-115 0 -221 90v-606h-184z" />
<glyph unicode="&#x2000;" horiz-adv-x="1044" />
<glyph unicode="&#x2001;" horiz-adv-x="2088" />
<glyph unicode="&#x2002;" horiz-adv-x="1044" />
<glyph unicode="&#x2003;" horiz-adv-x="2088" />
<glyph unicode="&#x2004;" horiz-adv-x="696" />
<glyph unicode="&#x2005;" horiz-adv-x="522" />
<glyph unicode="&#x2006;" horiz-adv-x="348" />
<glyph unicode="&#x2007;" horiz-adv-x="348" />
<glyph unicode="&#x2008;" horiz-adv-x="260" />
<glyph unicode="&#x2009;" horiz-adv-x="417" />
<glyph unicode="&#x200a;" horiz-adv-x="114" />
<glyph unicode="&#x2010;" horiz-adv-x="679" d="M117 580v153h448v-153h-448z" />
<glyph unicode="&#x2011;" horiz-adv-x="679" d="M117 580v153h448v-153h-448z" />
<glyph unicode="&#x2012;" horiz-adv-x="679" d="M117 580v153h448v-153h-448z" />
<glyph unicode="&#x2013;" horiz-adv-x="1024" d="M0 580v153h1024v-153h-1024z" />
<glyph unicode="&#x2014;" horiz-adv-x="2048" d="M0 580v153h2048v-153h-2048z" />
<glyph unicode="&#x2018;" horiz-adv-x="567" d="M123 1030l272 547l115 -47l-225 -563z" />
<glyph unicode="&#x2019;" horiz-adv-x="567" d="M57 1014l226 563l161 -64l-272 -546z" />
<glyph unicode="&#x201a;" horiz-adv-x="567" d="M111 -319l225 563l160 -64l-273 -547z" />
<glyph unicode="&#x201c;" horiz-adv-x="899" d="M123 1030l272 547l115 -47l-225 -563zM463 1030l272 547l115 -47l-225 -563z" />
<glyph unicode="&#x201d;" horiz-adv-x="899" d="M49 1014l225 563l162 -64l-272 -546zM389 1014l225 563l162 -64l-272 -546z" />
<glyph unicode="&#x201e;" horiz-adv-x="899" d="M102 -319l226 563l159 -64l-272 -547zM442 -319l226 563l159 -64l-272 -547z" />
<glyph unicode="&#x2022;" d="M207 772q-2 162 110.5 274.5t274.5 112.5t274.5 -112.5t112.5 -274.5q0 -160 -113.5 -272.5t-273.5 -112.5t-272.5 112.5t-112.5 272.5z" />
<glyph unicode="&#x2026;" horiz-adv-x="2048" d="M221 86q0 47 35 83t84 36t84 -36t35 -83q0 -49 -35 -84t-84 -35t-84 35t-35 84zM905 86q0 47 35 83t84 36t84 -36t35 -83q0 -49 -35 -84t-84 -35t-84 35t-35 84zM1589 86q0 47 35 83t84 36t84 -36t35 -83q0 -49 -35 -84t-84 -35t-84 35t-35 84z" />
<glyph unicode="&#x202f;" horiz-adv-x="417" />
<glyph unicode="&#x2039;" horiz-adv-x="688" d="M45 655l373 492l114 -84l-305 -408l305 -391l-114 -84z" />
<glyph unicode="&#x203a;" horiz-adv-x="688" d="M156 264l305 391l-305 408l114 84l373 -492l-373 -475z" />
<glyph unicode="&#x205f;" horiz-adv-x="522" />
<glyph unicode="&#x2122;" horiz-adv-x="1925" d="M70 1413v131h696v-131h-283v-731h-131v731h-282zM924 682v862h215l247 -608l256 608h213v-862h-131v731h-4l-295 -731h-79l-287 731h-4v-731h-131z" />
<glyph unicode="&#xe000;" horiz-adv-x="960" d="M0 960h960v-960h-960v960z" />
<glyph unicode="&#xfb01;" horiz-adv-x="1048" d="M80 786v172h84v467q0 377 309 377q68 0 129 -24v-187q-88 39 -123 39q-37 0 -63.5 -19.5t-38.5 -44t-19.5 -66.5t-8.5 -65.5t-1 -64.5v-412h254v-172h-254v-786h-184v786h-84zM662 1397q0 53 36.5 91t90 38t90 -38t36.5 -91q0 -51 -36.5 -88t-90 -37t-90 37t-36.5 88z M696 0v958h185v-958h-185z" />
<glyph unicode="&#xfb02;" horiz-adv-x="1017" d="M80 786v172h84v467q0 377 309 377q68 0 129 -24v-187q-88 39 -123 39q-37 0 -63.5 -19.5t-38.5 -44t-19.5 -66.5t-8.5 -65.5t-1 -64.5v-412h254v-172h-254v-786h-184v786h-84zM698 0v1778h185v-1778h-185z" />
<glyph unicode="&#xfb03;" horiz-adv-x="1646" d="M1259 1397q0 53 37 91t90 38t90 -38t37 -91q0 -51 -37 -88t-90 -37t-90 37t-37 88zM1294 0v958h184v-958h-184zM643 786v172h84v467q0 377 309 377q68 0 129 -24v-187q-88 39 -123 39q-37 0 -63.5 -19.5t-38.5 -44t-19.5 -66.5t-8.5 -65.5t-1 -64.5v-412h254v-172h-254 v-786h-184v786h-84zM80 786v172h84v467q0 377 309 377q68 0 129 -24v-187q-88 39 -123 39q-37 0 -63.5 -19.5t-38.5 -44t-19.5 -66.5t-8.5 -65.5t-1 -64.5v-412h254v-172h-254v-786h-184v786h-84z" />
<glyph unicode="&#xfb04;" horiz-adv-x="1581" d="M1261 0v1778h184v-1778h-184zM643 786v172h84v467q0 377 309 377q68 0 129 -24v-187q-88 39 -123 39q-37 0 -63.5 -19.5t-38.5 -44t-19.5 -66.5t-8.5 -65.5t-1 -64.5v-412h254v-172h-254v-786h-184v786h-84zM80 786v172h84v467q0 377 309 377q68 0 129 -24v-187 q-88 39 -123 39q-37 0 -63.5 -19.5t-38.5 -44t-19.5 -66.5t-8.5 -65.5t-1 -64.5v-412h254v-172h-254v-786h-184v786h-84z" />
</font>
</defs>
</svg>
